<?xml version="1.0" standalone="no"?>
<!DOCTYPE svg PUBLIC "-//W3C//DTD SVG 1.1//EN" "http://www.w3.org/Graphics/SVG/1.1/DTD/svg11.dtd" >
<svg xmlns="http://www.w3.org/2000/svg">
<metadata>
Created by FontPrep 20130207 at Tue Apr  8 21:58:54 2014
 By Callum Flack
Copyright (c) 2006 by Dino dos Santos _DSType. All rights reserved.
</metadata>
<defs>
<font id="ea70b66cf42581f30029fc549b26cd5c" >
  <font-face 
    font-family="LeituraNews-Italic2"
    font-weight="400"
    font-style="italic"
    font-stretch="normal"
    units-per-em="2048"
    panose-1="2 0 5 3 0 0 0 2 0 4"
    ascent="1638"
    descent="-410"
    x-height="1044"
    cap-height="1434"
    bbox="-313.348 -686 2691.2 2163"
    underline-thickness="102"
    underline-position="-102"
    unicode-range="U+000D-FB04"
  />
<missing-glyph horiz-adv-x="1208" 
d="M674 492l-477 -467h821zM330 999l350 -469l479 469h-829zM692 510l355 -473l133 952zM657 510l-352 483l-135 -960zM287 1024h921l-143 -1024h-922z" />
    <glyph glyph-name="ff" unicode="ff" horiz-adv-x="1353" 
d="M-37 -553q-96 0 -104 72q-6 59 41 92q30 23 74 7t83 -18q39 -1 64 19t38 47q24 50 33 185q9 136 23 241l119 850h-133l10 72l135 10q54 221 234 387t294 166q92 0 99 -68q6 -57 -36 -88t-77 -18q-63 23 -116 30t-116 -52q-36 -32 -77 -357h450q55 221 235 387t294 166
q92 0 98 -68q6 -57 -36 -88t-76 -18q-63 23 -116 30t-117 -52q-36 -32 -77 -357h250l-12 -82h-250l-119 -850q-35 -252 -187 -448t-270 -197q-96 0 -104 72q-6 59 41 92q31 23 75 7q136 -52 184 48q25 52 34 193t22 233l119 850h-450l-119 -850q-35 -252 -187 -448
t-270 -197z" />
    <glyph glyph-name="fi" unicode="fi" horiz-adv-x="1306" 
d="M1163 96q82 0 168 195l47 -23q-100 -289 -313 -288q-184 0 -156 229l82 604q7 69 -17 99t-114 30h-321l-119 -850q-35 -252 -187 -448t-270 -197q-96 0 -104 72q-6 59 41 92q30 23 74 7t83 -18q39 -1 64 19t38 47q24 50 33 185q9 136 23 241l119 850h-133l10 72l135 10
q54 221 234 387t294 166q92 0 99 -68q6 -57 -36 -88t-77 -18q-63 23 -116 30t-116 -52q-36 -32 -77 -357h321l336 20h21l-115 -835q-14 -113 49 -113z" />
    <glyph glyph-name="fl" unicode="fl" horiz-adv-x="1304" 
d="M1161 96q82 0 168 195l47 -23q-100 -289 -313 -288q-188 0 -156 229l162 1153q-152 64 -245 78t-151 -29t-84 -133t-38 -254h250l-13 -82h-249l-119 -850q-35 -252 -187 -448t-270 -197q-96 0 -104 72q-6 59 41 92q30 23 74 7t83 -18q39 -1 64 19t38 47q24 50 33 185
q9 136 23 241l119 850h-133l10 72l135 10q58 236 240 394t370 159q125 0 234 -64l94 64h21l-193 -1368q-14 -113 49 -113z" />
    <glyph glyph-name="ffi" unicode="ffi" horiz-adv-x="1961" 
d="M-37 -553q-96 0 -104 72q-6 59 41 92q30 23 74 7t83 -18q39 -1 64 19t38 47q24 50 33 185q9 136 23 241l119 850h-133l10 72l135 10q54 221 234 387t294 166q92 0 99 -68q6 -57 -36 -88t-77 -18q-63 23 -116 30t-116 -52q-36 -32 -77 -357h450q55 221 235 387t294 166
q92 0 98 -68q6 -57 -36 -88t-76 -18q-63 23 -116 30t-117 -52q-36 -32 -77 -357h322l336 20h20l-115 -835q-14 -113 50 -113q82 0 168 195l47 -23q-100 -289 -314 -288q-184 0 -155 229l82 604q8 69 -17 99t-114 30h-322l-119 -850q-35 -252 -187 -448t-270 -197
q-96 0 -104 72q-6 59 41 92q31 23 75 7q136 -52 184 48q25 52 34 193t22 233l119 850h-450l-119 -850q-35 -252 -187 -448t-270 -197z" />
    <glyph glyph-name="ffl" unicode="ffl" horiz-adv-x="1959" 
d="M-37 -553q-96 0 -104 72q-6 59 41 92q30 23 74 7t83 -18q39 -1 64 19t38 47q24 50 33 185q9 136 23 241l119 850h-133l10 72l135 10q54 221 234 387t294 166q92 0 99 -68q6 -57 -36 -88t-77 -18q-63 23 -116 30t-116 -52q-36 -32 -77 -357h450q59 236 241 394t370 159
q125 0 233 -64l94 64h21l-193 -1368q-14 -113 50 -113q82 0 168 195l47 -23q-100 -289 -314 -288q-188 0 -155 229l161 1153q-152 64 -244 78t-152 -29q-58 -43 -84 -133t-38 -254h250l-12 -82h-250l-119 -850q-35 -252 -187 -448t-270 -197q-96 0 -104 72q-6 59 41 92
q31 23 75 7q136 -52 184 48q25 52 34 193t22 233l119 850h-450l-119 -850q-35 -252 -187 -448t-270 -197z" />
    <glyph glyph-name="T_h" unicode="Th" horiz-adv-x="2230" 
d="M1311 1356h-406l-160 -1147q-12 -86 15 -118t131 -46q-2 -16 -6 -45h-543q4 29 6 45q109 14 145 46t48 118l159 1147h-143q-109 0 -185 -66t-108 -190h-55l57 334h1055l346 92h21l-119 -824h4q86 152 189 247t208 95q219 0 178 -307l-73 -528q-14 -113 51 -113
q80 0 166 195l49 -23q-104 -289 -316 -288q-188 0 -155 229l74 522q23 170 -78 170q-80 0 -195 -148t-137 -313l-61 -440h-205l170 1210q12 82 -13 114t-114 32z" />
    <glyph glyph-name="T_h.caron" unicode="&#x164;h" horiz-adv-x="2230" 
d="M856 1720l254 185h57l-307 -369h-61l-205 369h55zM1311 1356h-406l-160 -1147q-12 -86 15 -118t131 -46q-2 -16 -6 -45h-543q4 29 6 45q109 14 145 46t48 118l159 1147h-143q-109 0 -185 -66t-108 -190h-55l57 334h1055l346 92h21l-119 -824h4q86 152 189 247t208 95
q219 0 178 -307l-73 -528q-14 -113 51 -113q80 0 166 195l49 -23q-104 -289 -316 -288q-188 0 -155 229l74 522q23 170 -78 170q-80 0 -195 -148t-137 -313l-61 -440h-205l170 1210q12 82 -13 114t-114 32z" />
    <glyph glyph-name="T_h.commaaccent" unicode="&#x162;h" horiz-adv-x="2230" 
d="M574 -94q50 0 84 -22t45 -54q26 -75 14 -135q-21 -133 -117 -237t-201 -140l-20 47q133 57 188 168q43 82 0 109l-28 6q-53 0 -85 38t-24 91t51 91t93 38zM1311 1356h-406l-160 -1147q-12 -86 15 -118t131 -46q-2 -16 -6 -45h-543q4 29 6 45q109 14 145 46t48 118
l159 1147h-143q-109 0 -185 -66t-108 -190h-55l57 334h1055l346 92h21l-119 -824h4q86 152 189 247t208 95q219 0 178 -307l-73 -528q-14 -113 51 -113q80 0 166 195l49 -23q-104 -289 -316 -288q-188 0 -155 229l74 522q23 170 -78 170q-80 0 -195 -148t-137 -313l-61 -440
h-205l170 1210q12 82 -13 114t-114 32z" />
    <glyph glyph-name="f_f_j" unicode="ffj" horiz-adv-x="1904" 
d="M1516 942h-322l-119 -850q-35 -252 -187 -448t-270 -197q-96 0 -104 72q-6 59 41 92q31 23 75 7q136 -52 184 48q25 52 34 193t22 233l119 850h-450l-119 -850q-35 -252 -187 -448t-270 -197q-96 0 -104 72q-6 59 41 92q30 23 74 7t83 -18q39 -1 64 19t38 47
q24 50 33 185q9 136 23 241l119 850h-133l10 72l135 10q54 221 234 387t294 166q92 0 99 -68q6 -57 -36 -88t-77 -18q-63 23 -116 30t-116 -52q-36 -32 -77 -357h450q55 221 235 387t294 166q92 0 98 -68q6 -57 -36 -88t-76 -18q-63 23 -116 30t-117 -52q-36 -32 -77 -357
h322l336 20h20l-129 -952q-35 -252 -187 -448t-270 -197q-96 0 -104 72q-6 59 33 85t71 17q112 -41 159 -2q47 38 57 108t14 116t9 119t13 130l97 721q8 69 -17 99t-114 30z" />
    <glyph glyph-name="f_j" unicode="fj" horiz-adv-x="1249" 
d="M860 942h-321l-119 -850q-35 -252 -187 -448t-270 -197q-96 0 -104 72q-6 59 41 92q30 23 74 7t83 -18q39 -1 64 19t38 47q24 50 33 185q9 136 23 241l119 850h-133l10 72l135 10q54 221 234 387t294 166q92 0 99 -68q6 -57 -36 -88t-77 -18q-63 23 -116 30t-116 -52
q-36 -32 -77 -357h321l336 20h21l-129 -952q-35 -252 -187 -448t-270 -197q-96 0 -104 72q-6 59 41 92q30 23 74 7t83 -18q39 -1 64 19q48 39 58 112q10 74 19 189t17 172l96 721q7 69 -17 99t-114 30z" />
    <glyph glyph-name=".notdef" horiz-adv-x="1208" 
d="M674 492l-477 -467h821zM330 999l350 -469l479 469h-829zM692 510l355 -473l133 952zM657 510l-352 483l-135 -960zM287 1024h921l-143 -1024h-922z" />
    <glyph glyph-name=".notdef" horiz-adv-x="1208" 
d="M674 492l-477 -467h821zM330 999l350 -469l479 469h-829zM692 510l355 -473l133 952zM657 510l-352 483l-135 -960zM287 1024h921l-143 -1024h-922z" />
    <glyph glyph-name=".null" horiz-adv-x="0" 
 />
    <glyph glyph-name="nonmarkingreturn" horiz-adv-x="681" 
 />
    <glyph glyph-name="CR" unicode="&#xd;" horiz-adv-x="471" 
 />
    <glyph glyph-name="space" unicode=" " horiz-adv-x="471" 
 />
    <glyph glyph-name="exclam" unicode="!" horiz-adv-x="655" 
d="M551 1577q126 0 92 -150l-231 -1017h-52l46 1017q4 59 39 105q36 45 106 45zM360 238q53 0 86 -38t25 -91t-51 -91t-96 -38t-87 38t-26 91t52 91t97 38z" />
    <glyph glyph-name="quotedbl" unicode="&#x22;" horiz-adv-x="851" 
d="M561 1556l-98 -405h-64l17 405h145zM868 1556l-98 -405h-63l16 405h145z" />
    <glyph glyph-name="numbersign" unicode="#" horiz-adv-x="1146" 
d="M541 670l-33 -246h246l32 246h-245zM135 424h291l33 246h-291l12 82h291l41 292h82l-41 -292h246l41 292h82l-41 -292h293l-13 -82h-293l-32 -246h292l-12 -82h-293l-41 -291h-82l41 291h-245l-41 -291h-82l41 291h-291z" />
    <glyph glyph-name="dollar" unicode="$" horiz-adv-x="1095" 
d="M481 1147q-20 -162 148 -258l67 473q-186 -25 -215 -215zM838 334q23 160 -166 268l-76 -532q100 16 164 87t78 177zM735 1638h82l-26 -186q195 -6 335 -90l-28 -344h-56q-6 340 -262 352l-73 -520q393 -162 352 -451q-27 -179 -156 -291t-319 -124l-27 -189h-82l27 185
q-217 6 -379 102l31 362h55q-16 -375 305 -383l82 582q-178 78 -269 178t-69 255t142 258q122 103 309 118z" />
    <glyph glyph-name="percent" unicode="%" horiz-adv-x="2007" 
d="M620 858q168 0 206 278t-128 277q-166 1 -206 -277q-39 -278 128 -278zM710 1454q130 0 202 -92t48 -226q-22 -134 -121 -226t-229 -91t-202 93t-50 226t122 225t230 91zM1507 18q164 0 205 279q20 135 -13 206q-34 71 -114 70q-168 0 -207 -276q-20 -137 14 -208
t115 -71zM1596 614q130 0 201 -92t49 -225t-122 -225t-230 -92t-201 92t-48 225q21 133 121 225t230 92zM1626 1577l-936 -1700h-92l938 1700h90z" />
    <glyph glyph-name="ampersand" unicode="&#x26;" horiz-adv-x="1605" 
d="M572 707q-67 0 -111 32q-57 -93 -63 -201q-14 -233 171 -349q98 -60 240 -60q63 0 123 10q231 43 334 221q82 141 34 265q-45 125 -188 125q-68 0 -121 -15q-137 -35 -145 -145q-6 -76 41 -117t78 16q25 37 59 38t53 -35q20 -36 4 -70q-16 -35 -43 -49q-70 -35 -149 16
q-115 76 -98 252q14 133 138 214t290 81q301 0 393 111q49 59 18 110q-20 37 -50 5t-75 -32t-69 32t-8 66t42 46q68 33 142 -12q113 -68 74 -246q-18 -88 -108 -163t-278 -89q74 -94 86 -205t-36 -211t-132 -184q-85 -84 -214 -134t-280 -50q-150 0 -268 46
q-211 83 -258 272q-46 189 75 351q58 78 145 123q-57 60 -82 146t-7 179q17 93 72 173t172 132t279 52t250 -76t76 -180q-6 -41 -35 -70q-51 -50 -118 -30t-51 101t-28 134q-46 53 -160 53t-192 -84q-143 -153 -78 -450q76 31 120 1t24 -88t-88 -58z" />
    <glyph glyph-name="quotesingle" unicode="'" horiz-adv-x="544" 
d="M561 1556l-98 -405h-64l17 405h145z" />
    <glyph glyph-name="parenleft" unicode="(" horiz-adv-x="768" 
d="M494 604q-44 -256 -22 -582t126 -565h-51q-365 463 -268 1147q96 684 591 1147h52q-170 -238 -278 -542t-150 -605z" />
    <glyph glyph-name="parenright" unicode=")" horiz-adv-x="768" 
d="M442 604q45 256 22 583q-24 327 -126 564h51q365 -463 269 -1147t-592 -1147h-52q170 238 278 543q107 305 150 604z" />
    <glyph glyph-name="asterisk" unicode="*" horiz-adv-x="905" 
d="M594 1288q0 44 -1 51q-1 6 2 27t18 34t36 13q49 0 45 -49q0 -8 -5 -23t-48 -163q95 104 111 124q16 21 22 27q39 35 70 0q29 -37 -10 -72q-6 -6 -26 -17t-142 -97q101 9 140 20q40 11 54 11t28 -14t11 -36q-2 -22 -19 -36q-16 -14 -32 -15q-16 0 -30 2t-55 9
q-42 7 -101 14q81 -74 105 -88q23 -14 31 -24t6 -31q-3 -22 -20 -35q-43 -35 -71 0q-4 6 -11 16q-6 10 -26 44t-51 81q-4 -133 0 -145q13 -39 -19 -66q-16 -14 -36 -14t-34 14q-13 14 -10 31t19 70t33 116q-85 -92 -104 -117q-19 -26 -30 -35t-33 -9t-34 14q-31 35 12 71
q5 4 17 11t49 33t90 63l-183 -25q-47 0 -40 49q2 20 21 40t73 5q54 -14 139 -22q-83 75 -105 90q-68 47 -16 92q37 37 70 2q4 -6 19 -38t69 -113q2 66 2 110z" />
    <glyph glyph-name="plus" unicode="+" horiz-adv-x="1146" 
d="M741 922l-47 -334h334l-12 -82h-334l-47 -332h-82l47 332h-332l13 82h331l47 334h82z" />
    <glyph glyph-name="comma" unicode="," horiz-adv-x="696" 
d="M360 252q94 0 123 -64t17 -145q-18 -133 -116 -237t-200 -140l-20 47q133 57 188 168q43 82 0 109q-12 6 -28 6q-53 0 -85 37t-24 90t51 91t94 38z" />
    <glyph glyph-name="hyphen" unicode="-" horiz-adv-x="1146" 
d="M281 588h747l-12 -82h-748z" />
    <glyph glyph-name="period" unicode="." horiz-adv-x="655" 
d="M360 238q53 0 86 -38t25 -91t-51 -91t-96 -38t-87 38t-26 91t52 91t97 38z" />
    <glyph glyph-name="slash" unicode="/" horiz-adv-x="983" 
d="M1004 1577l-732 -1700h-92l733 1700h91z" />
    <glyph glyph-name="zero" unicode="0" horiz-adv-x="1228" 
d="M410 354q0 -136 52 -216q52 -81 159 -81q155 0 239 162t123 447q88 606 -190 606q-154 0 -238 -160t-125 -446q-20 -176 -20 -312zM610 -20q-166 0 -268 99q-195 190 -137 587q36 274 185 473q72 98 180 155q108 58 233 58t217 -58t135 -155q96 -215 53 -473
q-36 -274 -185 -473q-73 -97 -181 -155t-232 -58z" />
    <glyph glyph-name="one" unicode="1" horiz-adv-x="860" 
d="M721 1352l-160 -1143q-12 -88 27 -119t200 -45l-6 -45h-706l6 45q166 14 214 45t60 119l121 860q12 80 -30 96t-205 17l6 47l452 123h21z" />
    <glyph glyph-name="two" unicode="2" horiz-adv-x="1044" 
d="M706 1272q-102 0 -148 -48t-56 -163q-4 -33 -34 -55t-77 -23q-47 0 -77 30t-21 83q14 104 131 180t304 76q188 0 280 -110q184 -219 -70 -574q-162 -223 -608 -500h645l-23 -168h-860l10 82q471 312 621 539q75 111 103 183t43 184q15 110 -22 197q-38 87 -141 87z" />
    <glyph glyph-name="three" unicode="3" horiz-adv-x="1095" 
d="M516 57q116 0 197 85q82 86 102 226t-45 218q-66 78 -203 76h-69l10 77h55q125 0 204 80q79 81 96 203t-32 186t-142 64t-135 -47t-52 -164q-4 -33 -34 -55t-77 -23q-47 0 -77 30t-21 83q14 104 130 180t297 76t278 -84t79 -212t-109 -218t-231 -127v-4q147 -17 233 -101
t64 -235q-27 -188 -181 -290q-155 -101 -351 -101t-291 78q-94 78 -74 194q8 47 45 72q37 24 83 24t70 -22t17 -54q-24 -111 12 -163t152 -52z" />
    <glyph glyph-name="four" unicode="4" horiz-adv-x="1167" 
d="M1133 307h-195l-43 -307h-205l43 307h-614l24 176l803 869h137l-127 -901h195zM752 451l98 690l-643 -690h545z" />
    <glyph glyph-name="five" unicode="5" horiz-adv-x="1095" 
d="M262 348q49 0 73 -22t17 -54q-20 -106 19 -153t143 -47t194 79t112 233t-60 249q-82 94 -309 98h-127l104 600h690l-24 -170h-609l-59 -338q154 18 272 -2t185 -65q65 -45 105 -110q68 -111 50 -247q-28 -186 -180 -303t-381 -116q-168 0 -264 76t-82 180q8 52 45 82
t86 30z" />
    <glyph glyph-name="six" unicode="6" horiz-adv-x="1157" 
d="M769 842q177 0 267 -120t65 -306t-179 -312q-154 -125 -344 -124q-223 0 -325 154q-101 155 -69 386q45 326 281 558t573 294l6 -67q-258 -72 -399 -223t-209 -361q156 121 333 121zM590 57q110 -1 186 91t98 254t-30 252q-53 90 -175 89q-122 0 -243 -106
q-66 -231 -20 -405t184 -175z" />
    <glyph glyph-name="seven" unicode="7" horiz-adv-x="1003" 
d="M479 1161q-109 1 -143 -29t-66 -145h-57l59 344h861l-9 -61l-667 -1270h-246l780 1161h-512z" />
    <glyph glyph-name="eight" unicode="8" horiz-adv-x="1157" 
d="M558 -20q-194 0 -308 93t-88 267q14 102 107 189t239 141q-229 139 -203 334q23 158 167 252t311 96q167 0 271 -87t85 -239q-13 -94 -95 -178t-210 -127q158 -76 215 -159t41 -200q-25 -178 -181 -280q-157 -102 -351 -102zM586 57q124 1 203 69q78 68 94 181
q27 193 -312 330q-186 -109 -211 -283q-20 -141 41 -219t185 -78zM958 1036q14 113 -39 174q-53 62 -153 62t-171 -60t-85 -157q-14 -98 52 -169t212 -134q153 81 184 284z" />
    <glyph glyph-name="nine" unicode="9" horiz-adv-x="1157" 
d="M764 1352q222 0 324 -155t69 -386q-45 -326 -281 -558t-571 -294l-8 66q258 73 398 223t210 360q-162 -121 -337 -121t-265 121q-90 122 -63 308t180 311q154 125 344 125zM752 1272q-112 0 -186 -89t-98 -252t30 -254t175 -91q120 0 242 108q66 230 20 404t-183 174z
" />
    <glyph glyph-name="colon" unicode=":" horiz-adv-x="655" 
d="M456 928q54 0 87 -39t25 -91t-52 -91q-43 -39 -96 -39t-87 39t-26 92t52 91q43 38 97 38zM377 354q53 0 86 -38t25 -91t-52 -91q-43 -38 -96 -38t-87 38t-26 91q9 53 53 91t97 38z" />
    <glyph glyph-name="semicolon" unicode=";" horiz-adv-x="696" 
d="M360 252q94 0 123 -64t17 -145q-18 -133 -116 -237t-200 -140l-20 47q133 57 188 168q43 82 0 109q-12 6 -28 6q-53 0 -85 37t-24 90t51 91t94 38zM477 928q53 0 86 -39t25 -91t-51 -91t-97 -39t-87 39t-25 92t52 91t97 38z" />
    <glyph glyph-name="less" unicode="&#x3c;" horiz-adv-x="983" 
d="M385 551l430 -318l-14 -94l-531 385l9 47l636 387l-12 -96z" />
    <glyph glyph-name="equal" unicode="=" horiz-adv-x="1146" 
d="M260 444h748l-13 -82h-747zM301 731h748l-13 -82h-747z" />
    <glyph glyph-name="greater" unicode="&#x3e;" horiz-adv-x="983" 
d="M750 551l-431 311l13 96l530 -387l-8 -47l-637 -385l14 94z" />
    <glyph glyph-name="question" unicode="?" horiz-adv-x="919" 
d="M420 238q53 0 86 -38q32 -38 24 -91t-51 -91t-96 -38t-87 38t-26 91t52 91t98 38zM811 1126q8 68 -48 113t-170 85t-134 50q-78 41 -60 112t84 89q72 16 146 -39q57 -47 111 -105q54 -59 102 -157t33 -200t-67 -176t-175 -136q-67 -33 -99 -65q-73 -72 -65 -287h-61
q-180 385 131 510q18 8 69 26q145 51 180 113q17 28 23 67z" />
    <glyph glyph-name="at" unicode="@" horiz-adv-x="1810" 
d="M1125 1094q-259 0 -473 -218t-256 -516t80 -456q122 -156 398 -156t506 166l15 -37q-261 -197 -567 -197t-460 190q-154 189 -114 480q31 218 166 404t330 294t395 107q274 0 426 -157t108 -459q-35 -246 -178 -401t-315 -154q-78 0 -111 43t-28 108q-41 -67 -112 -111
t-138 -44q-106 0 -160 78q-53 79 -49 188t55 209q70 141 192 238t248 98q59 0 97 -32t45 -93h6l135 102h23l-172 -528q-25 -82 -24 -116q2 -63 73 -65q102 0 212 128t140 343q41 300 -96 432t-397 132zM1081 731q-182 0 -295 -307q-59 -137 -49 -256t99 -119q113 0 194 141
q62 105 123 320q35 121 8 171t-80 50z" />
    <glyph glyph-name="A" unicode="A" horiz-adv-x="1433" 
d="M815 1192l-295 -627h430l-131 627h-4zM1272 168q12 -53 41 -77t110 -46l-6 -45h-553l6 45q109 14 141 57t13 127l-55 258h-486l-108 -227q-49 -92 -29 -146t135 -69l-6 -45h-461l6 45q109 16 150 39t72 84l618 1276h121z" />
    <glyph glyph-name="B" unicode="B" horiz-adv-x="1249" 
d="M662 780q188 0 278 73t111 212q41 291 -246 291h-164l-82 -576h103zM666 76q307 0 350 313q20 143 -59 228t-265 85h-143l-88 -626h205zM707 0h-631l6 45q108 14 144 46t48 118l142 1014q12 85 -16 117t-130 46l6 48h570q225 0 335 -96t87 -253q-16 -119 -110 -207
t-224 -124v-4q334 -86 297 -371q-25 -175 -162 -277t-362 -102z" />
    <glyph glyph-name="C" unicode="C" horiz-adv-x="1310" 
d="M784 57q170 1 292 99t175 237h56l-60 -291q-217 -123 -473 -122q-299 0 -463 208t-118 529q45 321 267 529t521 208q256 0 438 -123l-20 -293h-56q-16 140 -109 238t-263 98q-203 0 -359 -183t-196 -474t63 -475q102 -184 305 -185z" />
    <glyph glyph-name="D" unicode="D" horiz-adv-x="1515" 
d="M696 0h-620l6 45q108 14 144 46t48 118l142 1014q12 85 -16 117t-130 46l6 48h621q334 0 504 -190t124 -518q-45 -328 -273 -527t-556 -199zM707 76q168 0 298 95q241 176 293 546q41 297 -63 468t-369 171h-225l-180 -1280h246z" />
    <glyph glyph-name="E" unicode="E" horiz-adv-x="1228" 
d="M741 760q102 0 162 45q59 45 88 162h56l-70 -492h-55q2 117 -45 162t-148 45h-184l-84 -606h379q108 0 188 66t113 190h55l-66 -332h-1054l6 45q108 14 144 46t48 118l142 1014q12 85 -16 117t-130 46l6 48h1035l-37 -334h-55q1 124 -55 190t-165 66h-358l-84 -596h184z
" />
    <glyph glyph-name="F" unicode="F" horiz-adv-x="1177" 
d="M999 1356h-358l-88 -627h184q100 0 160 45q59 45 90 162h55l-69 -492h-55q2 117 -46 162t-147 45h-184l-62 -442q-12 -86 15 -118t131 -46l-7 -45h-542l6 45q108 14 144 46t48 118l142 1014q12 85 -16 117t-130 46l6 48h1035l-37 -334h-55q1 124 -55 190t-165 66z" />
    <glyph glyph-name="G" unicode="G" horiz-adv-x="1454" 
d="M774 -20q-299 0 -463 208t-118 529q45 321 267 529t521 208q256 0 438 -123l-20 -293h-56q-16 140 -109 238t-263 98q-203 0 -359 -183t-196 -474t63 -475q102 -184 305 -185q174 0 314 115l37 258q12 86 -14 118t-134 46l6 45h512l-6 -45q-90 -14 -119 -45t-41 -119
l-41 -287q-84 -57 -234 -110t-290 -53z" />
    <glyph glyph-name="H" unicode="H" horiz-adv-x="1597" 
d="M1522 1223l-142 -1014q-12 -86 15 -118t131 -46l-6 -45h-543l6 45q109 14 145 46t48 118l67 483h-696l-68 -483q-12 -86 15 -118t131 -46l-7 -45h-542l6 45q108 14 144 46t48 118l142 1014q12 85 -16 117t-130 46l6 48h543l-6 -48q-109 -14 -145 -46t-47 -117l-64 -453
h696l64 453q13 85 -15 117t-131 46l7 48h542l-6 -48q-108 -14 -144 -46t-48 -117z" />
    <glyph glyph-name="I" unicode="I" horiz-adv-x="696" 
d="M621 1223l-142 -1014q-12 -86 15 -118t131 -46l-7 -45h-542l6 45q108 14 144 46t48 118l142 1014q12 85 -16 117t-130 46l6 48h543l-6 -48q-109 -14 -145 -46t-47 -117z" />
    <glyph glyph-name="J" unicode="J" 
d="M743 1223l-94 -670q-37 -260 -176 -417t-323 -156q-106 0 -117 71q-8 57 38 88q45 31 111 -1t109 -40t69 21t34 73q13 64 20 124t12 100l113 807q12 85 -16 117t-130 46l6 48h543l-6 -48q-109 -14 -145 -46t-48 -117z" />
    <glyph glyph-name="K" unicode="K" horiz-adv-x="1503" 
d="M788 860l293 311q65 65 75 131q4 32 -24 54t-90 30l7 48h522l-6 -48q-209 -29 -328 -157l-416 -445l375 -534q123 -172 262 -205l-6 -45h-610l6 45q195 27 80 195l-246 358q-37 53 -61 68q-25 14 -76 14l-66 -471q-12 -86 15 -118t131 -46l-7 -45h-542l6 45
q108 14 144 46t48 118l142 1014q12 85 -16 117t-130 46l6 48h543l-6 -48q-109 -14 -145 -46t-47 -117l-64 -465q82 0 128 22t103 80z" />
    <glyph glyph-name="L" unicode="L" horiz-adv-x="1187" 
d="M840 76q108 0 188 66t113 190h55l-66 -332h-1054l6 45q108 14 144 46t48 118l142 1014q12 85 -16 117t-130 46l6 48h543l-6 -48q-109 -14 -145 -46t-47 -117l-160 -1147h379z" />
    <glyph glyph-name="M" unicode="M" horiz-adv-x="1802" 
d="M971 287l571 1147h383l-6 -48q-109 -14 -145 -46t-48 -117l-141 -1014q-11 -86 15 -118t131 -46l-7 -45h-542l6 45q108 14 144 46t48 118l140 989l-607 -1208h-102l-289 1253l-145 -1034q-13 -88 15 -119t147 -45l-7 -45h-456l6 45q121 14 158 45t49 119l141 1014
q12 89 -16 119t-144 44l6 48h437z" />
    <glyph glyph-name="N" unicode="N" horiz-adv-x="1495" 
d="M1217 352l120 871q13 89 -15 119t-144 44l6 48h454l-6 -48q-118 -14 -156 -46t-51 -117l-170 -1223h-125l-608 1243l-145 -1034q-13 -88 15 -119t147 -45l-7 -45h-456l6 45q115 14 154 46t51 118l141 1014q12 85 -18 117t-140 46l6 48h420z" />
    <glyph glyph-name="O" unicode="O" horiz-adv-x="1597" 
d="M990 1374q-210 0 -372 -183t-201 -474t69 -475t318 -184t373 184t203 475q39 291 -70 474q-110 183 -320 183zM1002 1454q292 0 469 -210t133 -527t-280 -527q-238 -210 -530 -210t-469 210t-132 527q43 317 279 527q238 210 530 210z" />
    <glyph glyph-name="P" unicode="P" horiz-adv-x="1249" 
d="M688 608h-153l-56 -399q-12 -86 15 -118t131 -46l-7 -45h-542l6 45q108 14 144 46t48 118l142 1014q12 85 -16 117t-130 46l6 48h631q225 0 333 -108t83 -280t-165 -295q-72 -65 -194 -104t-276 -39zM690 686q197 0 295 93t121 245q25 125 -32 227q-26 47 -84 76t-144 29
h-205l-94 -670h143z" />
    <glyph glyph-name="Q" unicode="Q" horiz-adv-x="1597" 
d="M990 1374q-210 0 -372 -183t-201 -474t69 -475t318 -184t373 184t203 475q39 291 -70 474q-110 183 -320 183zM1002 1454q292 0 469 -210t135 -527q-41 -285 -238 -486t-455 -239q216 -268 392 -348q92 -43 196 -58l-4 -37q-156 -45 -248 -45q-191 0 -322 174
q-133 174 -190 306q-272 20 -430 225q-157 205 -114 515t279 520q238 210 530 210z" />
    <glyph glyph-name="R" unicode="R" horiz-adv-x="1372" 
d="M692 707q195 0 284 86t109 232t-36 239q-57 92 -224 92h-184l-92 -649h143zM887 1434q225 0 334 -104t84 -279q-47 -313 -400 -398l242 -422q37 -65 89 -115t105 -71l-6 -45h-297q-68 53 -137 195l-223 434h-139l-60 -420q-12 -86 15 -118t131 -46l-7 -45h-542l6 45
q108 14 144 46t48 118l142 1014q12 85 -16 117t-130 46l6 48h611z" />
    <glyph glyph-name="S" unicode="S" horiz-adv-x="1095" 
d="M530 61q127 0 209 74q83 74 99 195q16 120 -57 192t-225 140t-236 166q-84 97 -62 256q22 158 158 264q137 106 346 106t364 -92l-28 -344h-56q-8 354 -280 354q-115 0 -190 -56t-90 -166q-16 -110 46 -179q62 -70 181 -121q389 -166 350 -451q-27 -193 -174 -307
t-367 -112q-220 0 -395 102l31 362h55q-16 -383 321 -383z" />
    <glyph glyph-name="T" unicode="T" horiz-adv-x="1228" 
d="M1051 1356h-144l-162 -1147q-12 -86 15 -118t131 -46l-6 -45h-543l6 45q109 14 145 46t48 118l161 1147h-143q-109 0 -185 -67t-108 -189h-57l57 334h1096l-37 -334h-55q2 124 -54 190t-165 66z" />
    <glyph glyph-name="U" unicode="U" horiz-adv-x="1556" 
d="M1305 573l90 650q12 85 -17 117t-145 46l6 48h461l-6 -48q-119 -14 -158 -46t-51 -117l-94 -670q-39 -272 -206 -423q-167 -150 -430 -150t-377 150t-77 423l94 670q13 85 -15 117t-130 46l6 48h543l-6 -48q-109 -14 -145 -46t-48 -117l-90 -650q-72 -502 311 -501
q205 0 327 130t157 371z" />
    <glyph glyph-name="V" unicode="V" horiz-adv-x="1433" 
d="M360 1264q-12 52 -40 76t-111 46l6 48h549l-6 -48q-111 -14 -143 -57t-13 -127l209 -962h4l440 931q49 93 29 147t-133 68l6 48h461l-6 -48q-109 -16 -151 -38t-72 -84l-617 -1274h-119z" />
    <glyph glyph-name="W" unicode="W" horiz-adv-x="2068" 
d="M1112 1264q-10 52 -38 76t-111 46l6 48h547l-7 -48q-109 -14 -139 -56t-16 -128l141 -954h4l393 923q45 93 26 147t-132 68l6 48h461l-6 -48q-111 -16 -154 -38t-70 -84l-557 -1274h-137l-151 874l-455 -874h-119l-248 1274q-10 52 -37 76t-110 46l6 48h549l-6 -48
q-111 -14 -144 -57t-18 -127l176 -954h4l381 745z" />
    <glyph glyph-name="X" unicode="X" horiz-adv-x="1474" 
d="M502 1223q-33 75 -80 109t-141 54l6 48h594l-7 -48q-94 -12 -111 -68t19 -126l142 -332l256 318q157 189 -70 208l6 48h471l-6 -48q-103 -18 -155 -51t-117 -112l-355 -435l258 -579q23 -49 56 -81q34 -32 60 -44t95 -39l-6 -45h-614l6 45q199 27 111 236l-140 327
l-274 -327q-162 -201 47 -236l-6 -45h-492l6 45q111 27 173 61t118 103l391 469z" />
    <glyph glyph-name="Y" unicode="Y" horiz-adv-x="1310" 
d="M334 1264q-18 46 -46 72t-83 50l6 48h502l-6 -48q-112 -16 -123 -60t18 -124l211 -563h4l344 553q102 168 -86 194l6 48h420l-6 -48q-82 -16 -124 -40t-79 -82l-424 -693l-51 -362q-11 -86 15 -118t131 -46l-7 -45h-542l6 45q108 14 144 46t48 118l39 272z" />
    <glyph glyph-name="Z" unicode="Z" horiz-adv-x="1228" 
d="M840 76q112 0 190 66t111 190h55l-66 -332h-1054l6 55l983 1301h-440q-109 0 -185 -66t-108 -190h-58l58 334h999l-8 -62l-969 -1296h486z" />
    <glyph glyph-name="bracketleft" unicode="[" horiz-adv-x="778" 
d="M610 -532h-491l321 2283h492l-12 -78h-318l-299 -2128h318z" />
    <glyph glyph-name="backslash" unicode="\" horiz-adv-x="983" 
d="M420 1577h90l254 -1700h-92z" />
    <glyph glyph-name="bracketright" unicode="]" horiz-adv-x="778" 
d="M16 -532l11 77h317l299 2128h-317l12 78h491l-321 -2283h-492z" />
    <glyph glyph-name="asciicircum" unicode="^" horiz-adv-x="1044" 
d="M702 1284l-317 -280h-51l364 471h62l229 -471h-51z" />
    <glyph glyph-name="underscore" unicode="_" horiz-adv-x="1249" 
d="M184 -96h850l-12 -82h-850z" />
    <glyph glyph-name="grave" unicode="`" horiz-adv-x="755" 
d="M715 1149l-27 -23l-262 213q-61 51 -16 107t90 50q45 -7 61 -42z" />
    <glyph glyph-name="a" unicode="a" horiz-adv-x="1191" 
d="M566 106q104 0 186 138t106 309l16 117q43 307 -135 307q-119 0 -212 -123t-125 -332q-32 -208 14 -312t150 -104zM1057 96q33 0 75 45t78 150l54 -23q-53 -147 -121 -218q-68 -70 -172 -70t-140 63q-35 63 -24 141l8 70h-4q-63 -137 -144 -206t-200 -68q-158 0 -239 152
t-42 378q39 227 197 381t377 153q152 0 235 -94l84 84h51l-118 -825q-14 -113 45 -113z" />
    <glyph glyph-name="b" unicode="b" horiz-adv-x="1146" 
d="M211 362l133 922q12 88 -7 121t-118 33l4 47l348 92h21l-119 -809h4q61 135 143 206t201 70q160 0 241 -152t43 -378q-38 -227 -198 -381t-377 -153q-176 0 -260 105t-59 277zM724 915q-104 0 -184 -137t-108 -307l-18 -119q-47 -307 137 -307q119 0 212 123t125 333
t-14 312t-150 102z" />
    <glyph glyph-name="c" unicode="c" horiz-adv-x="1052" 
d="M553 -20q-205 0 -303 152t-66 388q32 234 190 379q157 145 339 145t272 -76t76 -180q-8 -52 -46 -82t-87 -30t-73 22t-17 54q45 217 -115 217q-127 0 -216 -108q-89 -107 -117 -301t45 -308t200 -115q205 0 315 164h45q-53 -135 -167 -228t-275 -93z" />
    <glyph glyph-name="d" unicode="d" horiz-adv-x="1193" 
d="M1059 96q33 0 75 45t78 150l54 -23q-53 -147 -121 -218q-68 -70 -172 -70t-139 63t-25 141l8 70h-4q-63 -135 -145 -205t-201 -69q-158 0 -239 152t-45 367q36 216 153 349q118 133 272 175t316 1l34 260q12 84 -10 118q-23 34 -114 36l4 47l348 92h20l-192 -1368
q-14 -113 45 -113zM564 106q106 0 188 138t104 309l53 395q-180 66 -324 -52t-186 -384q-29 -198 15 -302t150 -104z" />
    <glyph glyph-name="e" unicode="e" horiz-adv-x="1062" 
d="M710 973q-124 0 -212 -117t-109 -315q250 -41 387 104q90 95 75 201q-17 126 -141 127zM553 -20q-205 0 -303 152t-66 388q32 234 190 379q156 145 354 145t284 -129q76 -113 10 -237q-82 -158 -332 -201q-135 -25 -305 -6q-2 -160 70 -247t172 -87t190 46t133 118h45
q-53 -135 -168 -228t-274 -93z" />
    <glyph glyph-name="f" unicode="f" horiz-adv-x="698" 
d="M874 1577q92 0 99 -68q6 -57 -36 -88t-77 -18q-63 23 -116 30t-116 -52q-36 -32 -77 -357h250l-13 -82h-249l-119 -850q-35 -252 -187 -448t-270 -197q-96 0 -104 72q-6 59 41 92q30 23 74 7t83 -18q39 -1 64 19t38 47q24 50 33 185q9 136 23 241l119 850h-133l10 72
l135 10q54 221 234 387t294 166z" />
    <glyph glyph-name="g" unicode="g" horiz-adv-x="1105" 
d="M655 1044q109 0 248 -59l285 31l-17 -115h-213v-4q70 -104 56 -221q-25 -174 -153 -276t-310 -103q-76 0 -137 20l-16 -16q-11 -12 -14 -16q-3 -5 -12 -15q-28 -33 -28 -67q0 -57 121 -70l280 -31q143 -16 227 -83t83 -173q-1 -178 -187 -288t-417 -111q-379 0 -379 205
q0 86 60 159t179 152q-61 10 -104 50t-43 102q-1 104 198 223q-98 43 -146 129t-34 203q25 166 158 270t315 104zM266 -307q0 -82 69 -128t191 -46t228 64q106 65 106 181q0 66 -57 97t-168 47l-277 41q-92 -125 -92 -256zM629 973q-96 0 -163 -83t-75 -224q-8 -142 40 -220
t146 -78t156 84q57 83 69 220t-33 219q-44 82 -140 82z" />
    <glyph glyph-name="h" unicode="h" horiz-adv-x="1185" 
d="M782 901q-80 0 -194 -148t-137 -313l-62 -440h-205l178 1284q12 84 -10 118q-23 34 -114 36l4 47l348 92h20l-125 -875h4q83 150 187 246t211 96q219 0 178 -307l-72 -528q-14 -113 49 -113q82 0 168 195l47 -23q-100 -289 -313 -288q-185 0 -156 229l70 522
q12 86 -4 128t-72 42z" />
    <glyph glyph-name="i" unicode="i" horiz-adv-x="690" 
d="M578 1516q58 0 93 -41q37 -41 27 -99t-56 -100q-46 -41 -103 -41t-94 41q-35 41 -25 98q8 58 54 100t104 42zM328 926q-84 0 -168 -195l-47 23q102 291 313 290q184 0 154 -229l-82 -606q-14 -113 49 -113q82 0 168 195l47 -23q-100 -289 -313 -288q-185 0 -156 229
l82 604q14 113 -47 113z" />
    <glyph glyph-name="j" unicode="j" horiz-adv-x="608" 
d="M578 1516q58 0 93 -41q37 -41 27 -99t-56 -100q-46 -41 -103 -41t-94 41q-35 41 -25 98q8 58 54 100t104 42zM330 926q-84 0 -168 -195l-47 23q102 291 313 290q184 0 154 -229l-101 -723q-35 -252 -187 -448t-269 -197q-96 0 -105 72q-6 59 41 92q31 23 75 7
q136 -51 184 48q25 52 34 193t22 233l101 721q14 113 -47 113z" />
    <glyph glyph-name="k" unicode="k" horiz-adv-x="1189" 
d="M1042 102q80 0 170 189l50 -23q-64 -147 -138 -218q-74 -70 -175 -70t-151 45t-91 127l-187 370q-53 -6 -59 -8l-72 -514h-205l178 1284q12 88 -7 121t-117 33l4 47l348 92h20l-143 -1008q247 33 391 186q82 87 72 197q-6 63 56 87t101 -25q72 -103 -82 -268
q-97 -103 -280 -168l213 -392q45 -84 104 -84z" />
    <glyph glyph-name="l" unicode="l" horiz-adv-x="608" 
d="M465 96q82 0 168 195l47 -23q-100 -289 -313 -288q-189 0 -156 229l149 1075q12 88 -7 121t-117 33l4 47l348 92h20l-192 -1368q-14 -113 49 -113z" />
    <glyph glyph-name="m" unicode="m" horiz-adv-x="1839" 
d="M862 901q-80 0 -194 -148t-138 -313l-61 -440h-205l111 813q14 113 -47 113q-84 0 -168 -195l-47 23q102 291 313 290q184 0 154 -229l-15 -113h4q83 150 187 246t211 96q231 0 178 -307l-6 -35h4q84 150 187 246t210 96q219 0 178 -307l-71 -528q-14 -113 49 -113
q82 0 168 195l47 -23q-100 -289 -314 -288q-184 0 -155 229l69 522q12 86 -4 128t-71 42q-80 0 -195 -148q-114 -149 -137 -313l-62 -440h-204l100 731q12 86 -4 128t-72 42z" />
    <glyph glyph-name="n" unicode="n" horiz-adv-x="1265" 
d="M967 1044q219 0 178 -307l-72 -528q-14 -113 49 -113q82 0 168 195l47 -23q-100 -289 -313 -288q-184 0 -156 229l70 522q12 86 -4 128t-72 42q-80 0 -194 -148t-138 -313l-61 -440h-205l111 813q14 113 -47 113q-84 0 -168 -195l-47 23q102 291 313 290q184 0 154 -229
l-15 -113h4q83 150 187 246t211 96z" />
    <glyph glyph-name="o" unicode="o" horiz-adv-x="1146" 
d="M580 51q236 0 301 461q66 461 -172 461q-233 0 -299 -461t170 -461zM184 512q34 229 182 381q148 151 360 151t313 -152t67 -380q-39 -229 -187 -381q-149 -151 -361 -151t-312 152t-62 380z" />
    <glyph glyph-name="p" unicode="p" horiz-adv-x="1173" 
d="M395 0l-47 -322q-12 -86 16 -118t130 -45l-7 -47h-518l6 47q94 14 125 46t43 117l191 1346h205l-39 -256h4q63 135 145 206t201 70q158 0 239 -152t45 -368q-36 -217 -154 -350q-116 -133 -270 -174t-315 0zM752 915q-106 0 -187 -138q-82 -138 -104 -306l-53 -397
q180 -66 324 52t186 386q28 197 -16 300t-150 103z" />
    <glyph glyph-name="q" unicode="q" horiz-adv-x="1171" 
d="M1130 1034l-190 -1356q-12 -86 10 -118t115 -45l-6 -47h-522l6 47q109 14 145 46t47 117l82 576h-4q-63 -135 -144 -205t-202 -69q-158 0 -239 152t-42 378q39 227 197 381t377 153q152 0 235 -94l84 84h51zM566 106q104 0 186 138t106 309l16 117q43 307 -135 307
q-119 0 -212 -123t-125 -332q-32 -208 14 -312t150 -104z" />
    <glyph glyph-name="r" unicode="r" horiz-adv-x="974" 
d="M328 926q-84 0 -168 -195l-47 23q102 291 313 290q186 0 156 -229l-15 -104h4q139 334 324 333q79 0 103 -55t-10 -108t-95 -47q-158 16 -247 -94t-116 -300l-61 -440h-205l111 813q16 113 -47 113z" />
    <glyph glyph-name="s" unicode="s" horiz-adv-x="983" 
d="M473 51q82 0 140 49q57 49 69 127t-38 123t-174 99t-185 123t-45 192t125 202q109 78 275 78t255 -76q90 -76 76 -180q-8 -46 -44 -74t-85 -28t-73 22t-17 54q53 211 -117 211q-86 0 -141 -40q-56 -39 -64 -97q-15 -103 49 -146q49 -34 166 -80t191 -120t56 -206
q-18 -134 -141 -219q-122 -85 -286 -85t-254 76t-74 180q6 46 42 74t85 28t73 -22t17 -54q-45 -211 119 -211z" />
    <glyph glyph-name="t" unicode="t" horiz-adv-x="718" 
d="M465 96q35 0 80 45t90 150l49 -23q-104 -289 -319 -288q-188 0 -156 229l104 733h-129l11 72l133 30l194 287h51l-43 -307h250l-12 -82h-250l-104 -733q-16 -113 51 -113z" />
    <glyph glyph-name="u" unicode="u" horiz-adv-x="1265" 
d="M483 -20q-219 0 -178 307l72 528q14 113 -49 113q-82 0 -168 -195l-47 23q100 289 313 288q184 0 156 -229l-70 -522q-12 -86 4 -128t72 -42q80 0 194 148t138 313l61 440h205l-111 -813q-14 -113 47 -113q84 0 168 195l47 -23q-102 -291 -313 -290q-184 0 -154 229
l15 113h-4q-83 -150 -187 -246t-211 -96z" />
    <glyph glyph-name="v" unicode="v" horiz-adv-x="1193" 
d="M551 -20q-141 0 -205 71q-63 72 -41 236l72 526q14 113 -49 113q-84 0 -166 -195l-49 23q104 291 315 290q186 0 154 -231l-72 -522q-25 -178 147 -178q141 0 238 102q113 122 94 367q-10 139 -65 313q-30 96 36 133t130 -6q45 -35 57 -96q45 -240 -29 -462t-228 -353
t-339 -131z" />
    <glyph glyph-name="w" unicode="w" horiz-adv-x="1767" 
d="M482 -20q-106 0 -153 72q-46 72 -24 235l72 526q14 113 -49 113q-84 0 -166 -195l-49 23q104 291 315 290q186 0 154 -231l-72 -522q-12 -84 4 -126t72 -42q82 0 196 147t138 314l61 440h205l-103 -733q-25 -178 148 -178q142 0 237 102q113 121 95 367q-10 139 -66 313
q-31 96 35 133t131 -6q45 -35 57 -96q46 -240 -28 -462t-229 -353t-339 -131q-131 0 -194 63t-51 205l6 71h-4q-85 -151 -189 -245t-210 -94z" />
    <glyph glyph-name="x" unicode="x" horiz-adv-x="1200" 
d="M340 922q-35 0 -86 -45t-102 -146l-48 23q127 291 347 290q104 0 149 -66q46 -65 84 -179l49 -129l150 176q98 117 145 158q47 40 97 40t79 -26q49 -43 27 -109q-25 -66 -98 -59q-25 2 -58 10t-45 7q-43 -4 -100 -76l-166 -195l166 -418q33 -76 76 -76q35 0 86 45
t102 144l47 -23q-129 -289 -346 -288q-51 0 -87 15q-73 30 -146 230l-68 172l-188 -221q-100 -119 -144 -158q-44 -38 -96 -38q-51 0 -80 26q-51 43 -29 109q31 82 156 49q31 -8 44 -7q40 3 101 76l207 240l-145 373q-29 76 -80 76z" />
    <glyph glyph-name="y" unicode="y" horiz-adv-x="1191" 
d="M659 113q141 0 238 102q113 122 94 367q-10 139 -65 313q-31 94 39 132t131 -7q45 -31 53 -94q45 -352 -80 -700t-355 -564q-230 -215 -481 -215q-98 0 -116 72q-17 59 21 87t79 15q193 -55 416 99t325 450l-2 2q-182 -193 -403 -192q-141 0 -205 71q-63 72 -41 236
l72 526q14 113 -49 113q-84 0 -166 -195l-49 23q104 291 315 290q187 0 154 -231l-72 -522q-25 -178 147 -178z" />
    <glyph glyph-name="z" unicode="z" horiz-adv-x="989" 
d="M827 91q0 48 -12 81q-20 66 37 90t93 -11q36 -36 36 -83q0 -90 -88 -152q-89 -62 -189 -61q-100 -1 -178 21q-102 28 -211 97q-110 69 -118 56q-2 -12 -2 -16q0 -3 9 -21q36 -71 -2 -106t-79 -24q-41 10 -48 64t52 145t239 265t474 406l-2 2q-80 -49 -157 -53
q-77 -5 -127 19q-159 74 -211 75q-52 0 -84 -30t-85 -124l-49 23q71 158 145 226t178 69q148 0 393 -84q65 -23 71 -12t-1 21q-6 10 -18 25q-12 16 -16 35q-20 68 32 88q47 20 80 -22q14 -20 19 -49q10 -102 -120 -240t-661 -606l2 -2q135 51 237 29t162 -72t107 -93
q47 -42 69 -33t23 57z" />
    <glyph glyph-name="braceleft" unicode="{" horiz-adv-x="880" 
d="M1028 1751l-8 -57q-145 -4 -225 -49t-105 -179q-6 -31 -25 -301t-33 -321q-29 -109 -121 -167q-60 -37 -121 -61q-62 -24 -71 -26v-2q4 -2 70 -30t83 -45q55 -55 73 -94t15 -89q-3 -49 -57 -307q-55 -259 -59 -309t10 -90q24 -65 119 -82t142 -17l-8 -57q-322 0 -395 75
q-72 75 -50 228q6 53 67 274q60 221 61 317t-44 134q-45 37 -174 53l10 74q137 25 193 61q55 37 80 133q25 97 29 329t10 279q27 195 153 261q127 65 381 65z" />
    <glyph glyph-name="bar" unicode="|" horiz-adv-x="481" 
d="M434 1679h82l-266 -1884h-82z" />
    <glyph glyph-name="braceright" unicode="}" horiz-adv-x="880" 
d="M20 -530l9 57q143 4 223 49t106 178q6 31 26 301q18 269 32 321t44 95q48 69 144 110t108 45q13 3 17 5v2q-4 2 -38 16q-98 41 -120 64q-51 54 -68 90q-16 36 -14 87q2 50 56 310q53 260 58 308q11 109 -61 148q-38 20 -103 30t-105 10l8 57q196 1 280 -21
q82 -22 114 -55q72 -75 50 -227q-8 -49 -68 -272t-62 -320q-2 -96 45 -134q46 -38 173 -54l-10 -74q-137 -24 -191 -60t-80 -132t-29 -326q-3 -231 -11 -283q-27 -195 -153 -260t-380 -65z" />
    <glyph glyph-name="asciitilde" unicode="~" horiz-adv-x="1126" 
d="M861 829q48 -1 83 15t74 61l37 -24q-137 -215 -236 -215q-49 0 -164 41t-163 41t-83 -22q-34 -22 -83 -77l-37 27q147 236 248 235q41 0 159 -41t165 -41z" />
    <glyph glyph-name="exclamdown" unicode="&#xa1;" horiz-adv-x="655" 
d="M262 -471q-70 0 -92 45t-10 104l239 1018h52l-54 -1018q-1 -61 -33 -105t-102 -44zM485 1126q53 0 86 -39t25 -92t-52 -91t-96 -38t-87 38q-33 38 -25 91t52 92t97 39z" />
    <glyph glyph-name="cent" unicode="&#xa2;" horiz-adv-x="1105" 
d="M702 969q-122 -20 -204 -126t-106 -275q-24 -168 30 -276t166 -138zM969 676q-49 0 -73 22t-18 63q6 42 10 89q3 47 -23 82t-81 37l-116 -832q193 -2 356 84l-12 -82q-186 -141 -367 -155l-27 -189h-81l26 187q-207 14 -308 162t-71 368t184 364q153 144 345 164l26 189
h82l-26 -187q155 -6 237 -80t70 -174q-8 -52 -46 -82t-87 -30z" />
    <glyph glyph-name="sterling" unicode="&#xa3;" horiz-adv-x="1304" 
d="M420 709q0 25 -2 88t-4 123t16 155q35 162 176 271q142 108 324 108t269 -80t73 -184q-8 -51 -49 -82t-89 -31t-72 22q-22 22 -13 54q29 113 2 166t-133 53t-181 -63q-74 -63 -91 -161q-18 -98 -28 -245t-16 -194h299l-10 -78h-299q-49 -324 -291 -527v-4q184 82 302 75
t197 -37q78 -30 103 -36q85 -22 147 12t119 173h56q-72 -178 -150 -258q-133 -139 -323 -105q-23 4 -113 41t-176 57q-166 40 -326 -22l-16 61q174 111 234 247t67 323h-176l10 78h164z" />
    <glyph glyph-name="currency" unicode="&#xa4;" horiz-adv-x="1050" 
d="M555 213q121 0 222 88t118 209q18 121 -58 210q-77 89 -198 89t-221 -89t-118 -210t58 -209t197 -88zM642 834q114 0 194 -74l184 184l16 -16l-184 -183q90 -96 70 -235t-136 -234l132 -176l-21 -18l-133 178q-98 -72 -214 -72t-194 72l-180 -178l-16 18l180 176
q-84 97 -66 234q23 141 134 233l-136 185l19 16l137 -184q100 74 214 74z" />
    <glyph glyph-name="yen" unicode="&#xa5;" horiz-adv-x="1515" 
d="M985 567h275l-11 -82h-291l-38 -276q-12 -86 14 -118t131 -46l-6 -45h-543l6 45q109 14 145 46t48 118l39 276h-293l10 82h262l-297 697q-20 48 -47 74t-82 48l6 48h502l-6 -48q-73 -10 -103 -36t-27 -59q3 -32 26 -89l227 -563h4l328 553q98 168 -86 194l6 48h420
l-7 -48q-84 -16 -126 -40t-76 -82z" />
    <glyph glyph-name="brokenbar" unicode="&#xa6;" horiz-adv-x="481" 
d="M354 532l-104 -737h-82l104 737h82zM516 1679l-104 -737h-82l104 737h82z" />
    <glyph glyph-name="section" unicode="&#xa7;" horiz-adv-x="1157" 
d="M805 793q-43 29 -66 39t-93 41q-70 30 -97 47q-35 -40 -43 -94t4 -89t56 -64t137 -66q94 -38 126 -58q29 41 37 92t-5 87t-56 65zM568 41q102 0 166 54t77 146q12 92 -63 142q-52 35 -169 85q-116 50 -180 116q-63 66 -46 188t126 199q-87 78 -69 204q18 127 124 203
t265 76q160 0 248 -77t73 -179q-6 -49 -43 -76q-37 -26 -78 -26t-65 17t-16 48q31 113 1 172q-29 59 -131 59t-159 -42q-57 -44 -65 -106t3 -97q13 -35 53 -62t64 -37t82 -34q137 -53 214 -124q76 -71 58 -196t-120 -209q80 -84 63 -198q-18 -139 -143 -223t-282 -84
t-245 76t-73 180q6 50 43 76t77 26t64 -17q23 -17 16 -49q-31 -113 -1 -172q29 -59 131 -59z" />
    <glyph glyph-name="dieresis" unicode="&#xa8;" horiz-adv-x="1024" 
d="M903 1374q49 0 78 -33t21 -81t-46 -81q-37 -32 -86 -32q-50 0 -78 32t-20 82q8 49 45 81t86 32zM505 1374q48 0 77 -32q28 -32 20 -82t-45 -82q-37 -31 -86 -31t-77 32q-27 32 -19 82q8 49 45 81t85 32z" />
    <glyph glyph-name="copyright" unicode="&#xa9;" horiz-adv-x="1884" 
d="M1030 406q76 0 128 32t73 67q20 34 47 97h31l-37 -170q-119 -74 -254 -74t-223 82t-64 258q17 121 81 200q114 142 306 140q131 0 230 -73l-13 -172h-30q-29 197 -193 196q-207 1 -247 -291t165 -292zM948 53q274 0 497 195q222 195 261 469t-129 469q-168 194 -442 194
t-496 -194q-221 -195 -260 -469t128 -469t441 -195zM1145 1454q305 0 491 -216t144 -521t-290 -521q-247 -216 -552 -216t-491 216q-185 216 -142 521t289 521t551 216z" />
    <glyph glyph-name="ordfeminine" unicode="&#xaa;" horiz-adv-x="788" 
d="M437 895q42 0 126 53l21 144l-144 -35q-82 -20 -78 -94q-4 -68 75 -68zM625 813q-80 0 -68 98h-2q-121 -98 -203 -98q-53 0 -84 42t-22 106q18 109 172 137l174 30l18 121q25 143 -96 144q-49 0 -81 -24q-32 -25 -32 -51t11 -44q30 -33 -26 -62t-79 -8q-33 67 64 158
q98 92 225 92q78 0 116 -44t29 -124l-51 -299q-10 -68 18 -81t85 1l-5 -20q-109 -74 -163 -74z" />
    <glyph glyph-name="guillemotleft" unicode="&#xab;" horiz-adv-x="1495" 
d="M1030 551l297 -318l-14 -94l-531 385l9 47l636 387l-12 -96zM518 551l297 -318l-14 -94l-531 385l9 47l636 387l-12 -96z" />
    <glyph glyph-name="logicalnot" unicode="&#xac;" horiz-adv-x="1222" 
d="M1104 588l-60 -414h-81l47 332h-742l13 82h823z" />
    <glyph glyph-name="uni00AD" unicode="&#xad;" horiz-adv-x="1146" 
d="M281 588h747l-12 -82h-748z" />
    <glyph glyph-name="registered" unicode="&#xae;" horiz-adv-x="1884" 
d="M948 53q274 0 497 195q222 195 261 469t-129 469q-168 194 -442 194t-496 -194q-221 -195 -260 -469t128 -469t441 -195zM1145 1454q305 0 491 -216t144 -521t-290 -521q-247 -216 -552 -216t-491 216q-185 216 -142 521t289 521t551 216zM1038 692q74 0 122 41t58 109
t-32 104q-43 36 -129 35h-74l-41 -289h96zM1092 1024q140 0 204 -43t50 -141q-8 -60 -64 -110t-152 -68l111 -168q39 -59 115 -99l-4 -22h-174q-45 29 -74 84l-111 194h-57l-23 -157q-5 -52 11 -70t75 -29l-4 -22h-319l4 22q66 11 86 29t27 70l57 407q8 51 -8 69t-78 29
l4 25h324z" />
    <glyph glyph-name="macron" unicode="&#xaf;" horiz-adv-x="1044" 
d="M381 1305h645l-12 -82h-645z" />
    <glyph glyph-name="degree" unicode="&#xb0;" horiz-adv-x="768" 
d="M592 1495q-49 0 -87 -34t-45 -83q-6 -49 22 -83q28 -33 77 -33t88 34t45 82q8 49 -21 83q-30 34 -79 34zM549 1194q-78 0 -123 53t-35 131q9 78 71 131t139 53t123 -52q46 -54 36 -132t-72 -131t-139 -53z" />
    <glyph glyph-name="plusminus" unicode="&#xb1;" horiz-adv-x="1146" 
d="M231 240h332l37 266h-332l13 82h331l47 334h82l-47 -334h334l-12 -82h-334l-37 -266h334l-12 -82h-748z" />
    <glyph glyph-name="twosuperior" unicode="&#xb2;" 
d="M663 1802q-56 0 -81 -26t-29 -95q-1 -20 -21 -36q-20 -17 -54 -17t-50 20t-12 54q10 63 80 108t184 45q114 1 172 -65q112 -129 -38 -340q-82 -115 -353 -289h375l-17 -117h-528l8 50q269 180 361 319q134 207 80 339q-20 50 -77 50z" />
    <glyph glyph-name="threesuperior" unicode="&#xb3;" 
d="M526 1075q145 0 170 191q12 78 -24 122q-37 44 -111 44h-39l6 49h19q76 0 125 46q49 47 59 121t-17 110q-28 36 -73 36q-104 0 -104 -121q3 -21 -17 -37t-53 -16q-66 0 -66 53q4 76 75 125q70 49 182 49t171 -50t49 -128t-66 -132t-142 -75v-2q90 -12 143 -61t39 -151
t-108 -164q-94 -60 -218 -60q-125 0 -180 47t-35 127q12 53 82 53q31 0 46 -15t12 -36q-10 -68 7 -96t68 -29z" />
    <glyph glyph-name="acute" unicode="&#xb4;" horiz-adv-x="755" 
d="M358 1149l240 305q29 35 76 41q46 6 74 -49t-48 -107l-317 -213z" />
    <glyph glyph-name="mu" unicode="&#xb5;" horiz-adv-x="1265" 
d="M328 928q-82 0 -168 -195l-47 23q100 289 313 288q184 0 156 -229l-70 -522q-12 -86 4 -128t72 -42q80 0 194 148t138 313l61 440h205l-111 -813q-14 -113 47 -113q84 0 168 195l47 -23q-102 -291 -313 -290q-184 0 -154 229l15 113h-4q-83 -150 -187 -246t-211 -96
q-18 0 -26 2q-59 -217 -195 -376t-236 -159q-99 0 -108 72q-6 59 41 92q31 23 75 7q136 -51 184 48q25 52 34 193t22 233l103 723q16 113 -49 113z" />
    <glyph glyph-name="paragraph" unicode="&#xb6;" horiz-adv-x="1372" 
d="M1081 1434h287l-6 -41q-121 -14 -158 -45t-49 -119l-143 -1024q-12 -88 16 -119t143 -45l-4 -41h-286zM795 1434h184l-201 -1434h-286l4 41q124 14 160 45t49 119l57 409q-156 0 -257 67q-186 123 -155 363q25 170 151 280t294 110z" />
    <glyph glyph-name="periodcentered" unicode="&#xb7;" horiz-adv-x="729" 
d="M459 676q69 0 111 -49t33 -119t-65 -120t-126 -50t-114 49t-34 120t68 120t127 49z" />
    <glyph glyph-name="cedilla" unicode="&#xb8;" horiz-adv-x="761" 
d="M287 0h61l-12 -82q-4 -23 28 -36t70 -20t67 -41q28 -34 19 -95q-14 -90 -130 -155t-245 -83l-10 61q2 1 44 13q130 39 161 85q16 23 20 55t-13 54t-40 33q-58 25 -43 109z" />
    <glyph glyph-name="onesuperior" unicode="&#xb9;" 
d="M743 1855l-96 -681q-8 -50 16 -70t111 -29l-4 -31h-430l4 31q92 7 120 27t36 72l71 503q6 49 -17 62q-24 12 -114 12l4 31l287 73h12z" />
    <glyph glyph-name="ordmasculine" unicode="&#xba;" horiz-adv-x="833" 
d="M532 858q78 0 132 70q53 70 72 204t-14 207q-34 72 -112 72q-163 -1 -202 -277t124 -276zM619 1454q130 0 201 -93t48 -229t-122 -227q-99 -92 -228 -92t-199 92t-47 227q23 134 120 228t227 94z" />
    <glyph glyph-name="guillemotright" unicode="&#xbb;" horiz-adv-x="1495" 
d="M1128 551l-297 311l13 96l530 -387l-8 -47l-637 -385l14 94zM616 551l-297 311l13 96l530 -387l-8 -47l-637 -385l14 94z" />
    <glyph glyph-name="onequarter" unicode="&#xbc;" horiz-adv-x="1843" 
d="M1763 172h-108l-23 -172h-147l22 172h-358l16 119l484 520h96l-76 -541h109zM1522 270l55 394l-367 -394h312zM1436 1454l-699 -1474h-82l701 1474h80zM594 1446l-96 -682q-8 -51 15 -71q24 -19 112 -27l-4 -31h-431l5 31q91 8 119 27t36 71l70 504q8 49 -16 61t-113 12
l4 31l287 74h12z" />
    <glyph glyph-name="onehalf" unicode="&#xbd;" horiz-adv-x="1843" 
d="M1583 758q-55 0 -81 -28t-29 -93q1 -21 -19 -37t-54 -16t-50 20t-13 53q8 63 78 109t186 45q116 0 172 -66q112 -133 -38 -339q-90 -124 -353 -289h375l-16 -117h-529l7 49q271 180 361 320q74 114 87 209q27 180 -84 180zM1405 1454l-698 -1474h-82l700 1474h80z
M594 1446l-96 -682q-8 -51 15 -71q24 -19 112 -27l-4 -31h-431l5 31q91 8 119 27t36 71l70 504q8 49 -16 61t-113 12l4 31l287 74h12z" />
    <glyph glyph-name="threequarters" unicode="&#xbe;" horiz-adv-x="1843" 
d="M1763 172h-108l-23 -172h-147l22 172h-358l16 119l484 520h96l-76 -541h109zM1522 270l55 394l-367 -394h312zM430 666q145 0 170 190q10 78 -26 122t-109 44h-39l6 49h19q77 0 125 46q48 47 58 121t-17 110q-28 36 -72 36q-106 0 -105 -120q2 -20 -17 -36t-52 -18
q-66 0 -66 54q4 76 75 125q70 49 182 49t171 -50t49 -128t-66 -133q-56 -54 -143 -74v-2q89 -11 143 -61t40 -152t-108 -163t-218 -61q-125 0 -180 48t-35 126q14 53 82 54q31 0 45 -16t12 -35q-10 -68 7 -97q18 -28 69 -28zM1446 1454l-698 -1474h-82l700 1474h80z" />
    <glyph glyph-name="questiondown" unicode="&#xbf;" horiz-adv-x="919" 
d="M652 866q-52 0 -86 38t-25 91q8 53 52 92t97 39t86 -39t25 -92t-52 -91q-45 -38 -97 -38zM463 158q-141 -50 -179 -112q-16 -26 -23 -80t48 -99t169 -85t134 -50q80 -40 62 -110t-87 -90t-135 32q-66 51 -120 111q-56 59 -102 157t-32 200t67 175q51 74 161 129t147 123
t29 237h62q182 -385 -132 -512q-18 -8 -69 -26z" />
    <glyph glyph-name="Agrave" unicode="&#xc0;" horiz-adv-x="1433" 
d="M815 1192l-295 -627h430l-131 627h-4zM1272 168q12 -53 41 -77t110 -46l-6 -45h-553l6 45q109 14 141 57t13 127l-55 258h-486l-108 -227q-49 -92 -29 -146t135 -69l-6 -45h-461l6 45q109 16 150 39t72 84l618 1276h121zM915 1536l-260 213q-59 49 -18 105t87 52
q46 -5 64 -42l154 -305z" />
    <glyph glyph-name="Aacute" unicode="&#xc1;" horiz-adv-x="1433" 
d="M815 1192l-295 -627h430l-131 627h-4zM1272 168q12 -53 41 -77t110 -46l-6 -45h-553l6 45q109 14 141 57t13 127l-55 258h-486l-108 -227q-49 -92 -29 -146t135 -69l-6 -45h-461l6 45q109 16 150 39t72 84l618 1276h121zM909 1559l240 305q29 35 76 41t71 -43
q33 -61 -43 -113l-319 -213z" />
    <glyph glyph-name="Acircumflex" unicode="&#xc2;" horiz-adv-x="1433" 
d="M815 1192l-295 -627h430l-131 627h-4zM1272 168q12 -53 41 -77t110 -46l-6 -45h-553l6 45q109 14 141 57t13 127l-55 258h-486l-108 -227q-49 -92 -29 -146t135 -69l-6 -45h-461l6 45q109 16 150 39t72 84l618 1276h121zM961 1720l-259 -184h-55l307 369h62l205 -369h-58
z" />
    <glyph glyph-name="Atilde" unicode="&#xc3;" horiz-adv-x="1433" 
d="M815 1192l-295 -627h430l-131 627h-4zM1272 168q12 -53 41 -77t110 -46l-6 -45h-553l6 45q109 14 141 57t13 127l-55 258h-486l-108 -227q-49 -92 -29 -146t135 -69l-6 -45h-461l6 45q109 16 150 39t72 84l618 1276h121zM819 1833q41 0 160 -41t167 -41t82 15t72 61
l37 -25q-137 -215 -235 -215q-49 0 -164 41t-164 41q-49 1 -83 -21t-83 -77l-37 26q147 236 248 236z" />
    <glyph glyph-name="Adieresis" unicode="&#xc4;" horiz-adv-x="1433" 
d="M815 1192l-295 -627h430l-131 627h-4zM1272 168q12 -53 41 -77t110 -46l-6 -45h-553l6 45q109 14 141 57t13 127l-55 258h-486l-108 -227q-49 -92 -29 -146t135 -69l-6 -45h-461l6 45q109 16 150 39t72 84l618 1276h121zM1163 1784q49 0 78 -33t21 -82t-45 -81t-87 -32
t-78 32t-20 82t45 82t86 32zM765 1784q48 0 77 -32q28 -32 20 -83t-45 -82t-86 -31t-77 32q-27 32 -19 82t45 82t85 32z" />
    <glyph glyph-name="Aring" unicode="&#xc5;" horiz-adv-x="1433" 
d="M922 1485q49 0 88 34t45 83q8 48 -22 82t-79 34t-87 -34t-45 -82q-7 -49 22 -83t78 -34zM819 1192h-4l-295 -625h430zM964 1786q78 0 122 -53q46 -53 37 -121t-48 -114q-39 -48 -92 -68l289 -1262q12 -53 41 -77t110 -46l-6 -45h-553l6 45q109 14 141 57t13 127l-53 256
h-490l-106 -225q-49 -92 -29 -146t135 -69l-6 -45h-461l6 45q109 16 150 39t72 84l610 1262q-53 16 -80 63q-26 47 -17 117t70 123t139 53z" />
    <glyph glyph-name="AE" unicode="&#xc6;" horiz-adv-x="1802" 
d="M1065 1202l-303 -442h246l61 442h-4zM1573 1356h-277l-84 -596h103q102 0 162 45q59 45 88 162h55l-70 -492h-55q2 117 -45 162t-147 45h-103l-84 -606h297q109 0 189 66t112 190h55l-65 -332h-973l6 45q109 14 145 46t48 118l65 473h-286l-285 -422q-64 -98 -62 -136
t32 -54t87 -25l-6 -45h-461l6 45q111 16 159 39t91 84l875 1266h739l-37 -334h-55q2 124 -54 190t-165 66z" />
    <glyph glyph-name="Ccedilla" unicode="&#xc7;" horiz-adv-x="1310" 
d="M784 57q170 1 292 99t175 237h56l-60 -291q-211 -121 -471 -122l-8 -62q-4 -23 28 -36t70 -20t67 -41q28 -34 19 -95q-14 -90 -130 -155t-244 -83l-11 61q2 1 44 13q130 39 161 85q16 25 20 57t-12 54t-39 31q-23 10 -38 37t-7 72l17 86q-270 18 -417 223
q-146 205 -102 519t266 520q222 208 521 208q256 0 438 -123l-20 -293h-56q-16 140 -109 238t-263 98q-203 0 -359 -183t-196 -474t63 -475q102 -184 305 -185z" />
    <glyph glyph-name="Egrave" unicode="&#xc8;" horiz-adv-x="1228" 
d="M741 760q102 0 162 45q59 45 88 162h56l-70 -492h-55q2 117 -45 162t-148 45h-184l-84 -606h379q108 0 188 66t113 190h55l-66 -332h-1054l6 45q108 14 144 46t48 118l142 1014q12 85 -16 117t-130 46l6 48h1035l-37 -334h-55q1 124 -55 190t-165 66h-358l-84 -596h184z
M883 1536l-260 213q-59 49 -19 105t87 52q46 -5 65 -42l153 -305z" />
    <glyph glyph-name="Eacute" unicode="&#xc9;" horiz-adv-x="1228" 
d="M741 760q102 0 162 45q59 45 88 162h56l-70 -492h-55q2 117 -45 162t-148 45h-184l-84 -606h379q108 0 188 66t113 190h55l-66 -332h-1054l6 45q108 14 144 46t48 118l142 1014q12 85 -16 117t-130 46l6 48h1035l-37 -334h-55q1 124 -55 190t-165 66h-358l-84 -596h184z
M823 1559l240 305q29 35 75 41t76 -49q29 -55 -47 -107l-319 -213z" />
    <glyph glyph-name="Ecircumflex" unicode="&#xca;" horiz-adv-x="1228" 
d="M741 760q102 0 162 45q59 45 88 162h56l-70 -492h-55q2 117 -45 162t-148 45h-184l-84 -606h379q108 0 188 66t113 190h55l-66 -332h-1054l6 45q108 14 144 46t48 118l142 1014q12 85 -16 117t-130 46l6 48h1035l-37 -334h-55q1 124 -55 190t-165 66h-358l-84 -596h184z
M905 1720l-258 -184h-55l307 369h62l204 -369h-57z" />
    <glyph glyph-name="Edieresis" unicode="&#xcb;" horiz-adv-x="1228" 
d="M741 760q102 0 162 45q59 45 88 162h56l-70 -492h-55q2 117 -45 162t-148 45h-184l-84 -606h379q108 0 188 66t113 190h55l-66 -332h-1054l6 45q108 14 144 46t48 118l142 1014q12 85 -16 117t-130 46l6 48h1035l-37 -334h-55q1 124 -55 190t-165 66h-358l-84 -596h184z
M1128 1784q49 0 78 -33t21 -82t-45 -81t-86 -32t-78 32t-21 82t45 82t86 32zM730 1784q48 0 77 -32t21 -83t-46 -82q-37 -31 -86 -31q-48 0 -76 32t-20 82t45 82t85 32z" />
    <glyph glyph-name="Igrave" unicode="&#xcc;" horiz-adv-x="696" 
d="M621 1223l-142 -1014q-12 -86 15 -118t131 -46l-7 -45h-542l6 45q108 14 144 46t48 118l142 1014q12 85 -16 117t-130 46l6 48h543l-6 -48q-109 -14 -145 -46t-47 -117zM559 1536l-260 213q-59 49 -18 105t87 52q46 -5 64 -42l154 -305z" />
    <glyph glyph-name="Iacute" unicode="&#xcd;" horiz-adv-x="696" 
d="M621 1223l-142 -1014q-12 -86 15 -118t131 -46l-7 -45h-542l6 45q108 14 144 46t48 118l142 1014q12 85 -16 117t-130 46l6 48h543l-6 -48q-109 -14 -145 -46t-47 -117zM545 1559l239 305q29 37 76 42t76 -50t-47 -107l-320 -213z" />
    <glyph glyph-name="Icircumflex" unicode="&#xce;" horiz-adv-x="696" 
d="M621 1223l-142 -1014q-12 -86 15 -118t131 -46l-7 -45h-542l6 45q108 14 144 46t48 118l142 1014q12 85 -16 117t-130 46l6 48h543l-6 -48q-109 -14 -145 -46t-47 -117zM590 1720l-258 -184h-56l308 369h61l205 -369h-57z" />
    <glyph glyph-name="Idieresis" unicode="&#xcf;" horiz-adv-x="696" 
d="M625 1223l-142 -1014q-12 -86 15 -118t131 -46l-6 -45h-543l6 45q108 14 144 46t49 118l141 1014q12 85 -16 117t-130 46l7 48h542l-6 -48q-109 -14 -145 -46t-47 -117zM797 1784q49 0 77 -33t21 -82q-8 -49 -45 -81t-86 -32t-78 32q-28 32 -20 82t45 82t86 32zM398 1784
q48 0 77 -32t21 -83t-45 -82t-86 -31t-77 32t-20 82t45 82t85 32z" />
    <glyph glyph-name="Eth" unicode="&#xd0;" horiz-adv-x="1515" 
d="M707 76q168 0 298 95q241 176 293 546q41 297 -63 468t-369 171h-225l-84 -596h229l-12 -78h-229l-84 -606h246zM897 1434q334 0 504 -190t124 -518q-45 -328 -273 -527t-556 -199h-620l6 45q108 14 144 46t48 118l66 473h-170l12 78h170l64 463q12 85 -16 117t-130 46
l6 48h621z" />
    <glyph glyph-name="Ntilde" unicode="&#xd1;" horiz-adv-x="1495" 
d="M1217 352l120 871q13 89 -15 119t-144 44l6 48h454l-6 -48q-118 -14 -156 -46t-51 -117l-170 -1223h-125l-608 1243l-145 -1034q-13 -88 15 -119t147 -45l-7 -45h-456l6 45q115 14 154 46t51 118l141 1014q12 85 -18 117t-140 46l6 48h420zM926 1833q42 0 160 -41
t166 -41t82 15t73 61l37 -25q-137 -215 -236 -215q-49 0 -164 41q-116 41 -164 41q-48 1 -82 -21t-83 -77l-37 26q147 236 248 236z" />
    <glyph glyph-name="Ograve" unicode="&#xd2;" horiz-adv-x="1597" 
d="M990 1374q-210 0 -372 -183t-201 -474t69 -475t318 -184t373 184t203 475q39 291 -70 474q-110 183 -320 183zM1002 1454q292 0 469 -210t133 -527t-280 -527q-238 -210 -530 -210t-469 210t-132 527q43 317 279 527q238 210 530 210zM1032 1536l-260 213q-59 49 -18 105
t87 52q46 -5 64 -42l154 -305z" />
    <glyph glyph-name="Oacute" unicode="&#xd3;" horiz-adv-x="1597" 
d="M990 1374q-210 0 -372 -183t-201 -474t69 -475t318 -184t373 184t203 475q39 291 -70 474q-110 183 -320 183zM1002 1454q292 0 469 -210t133 -527t-280 -527q-238 -210 -530 -210t-469 210t-132 527q43 317 279 527q238 210 530 210zM930 1559l239 305q29 35 76 41
t76 -49t-47 -107l-320 -213z" />
    <glyph glyph-name="Ocircumflex" unicode="&#xd4;" horiz-adv-x="1597" 
d="M990 1374q-210 0 -372 -183t-201 -474t69 -475t318 -184t373 184t203 475q39 291 -70 474q-110 183 -320 183zM1002 1454q292 0 469 -210t133 -527t-280 -527q-238 -210 -530 -210t-469 210t-132 527q43 317 279 527q238 210 530 210zM1040 1720l-258 -184h-55l307 369
h62l204 -369h-57z" />
    <glyph glyph-name="Otilde" unicode="&#xd5;" horiz-adv-x="1597" 
d="M990 1374q-210 0 -372 -183t-201 -474t69 -475t318 -184t373 184t203 475q39 291 -70 474q-110 183 -320 183zM1002 1454q292 0 469 -210t133 -527t-280 -527q-238 -210 -530 -210t-469 210t-132 527q43 317 279 527q238 210 530 210zM909 1833q41 0 160 -41t167 -41
t82 15t73 61l36 -25q-137 -215 -235 -215q-49 0 -164 41t-164 41q-49 1 -83 -21t-83 -77l-36 26q147 236 247 236z" />
    <glyph glyph-name="Odieresis" unicode="&#xd6;" horiz-adv-x="1597" 
d="M990 1374q-210 0 -372 -183t-201 -474t69 -475t318 -184t373 184t203 475q39 291 -70 474q-110 183 -320 183zM1002 1454q292 0 469 -210t133 -527t-280 -527q-238 -210 -530 -210t-469 210t-132 527q43 317 279 527q238 210 530 210zM1264 1784q50 0 78 -33t20 -82
t-45 -81t-86 -32t-78 32q-28 32 -20 82t45 82t86 32zM865 1784q48 0 77 -32t21 -83t-45 -82q-36 -31 -86 -31t-78 32t-19 82q8 50 45 82t85 32z" />
    <glyph glyph-name="multiply" unicode="&#xd7;" horiz-adv-x="1126" 
d="M1044 858l-352 -309l266 -309l-63 -56l-266 308l-350 -308l-48 58l351 307l-265 307l64 55l264 -307l352 307z" />
    <glyph glyph-name="Oslash" unicode="&#xd8;" horiz-adv-x="1597" 
d="M797 57q217 1 379 185t204 475q27 193 -24 358l-885 -809q109 -209 326 -209zM1002 1374q-222 0 -384 -183t-200 -474q-29 -205 22 -371l889 807q-105 221 -327 221zM993 1454q284 0 457 -188l137 125l47 -62l-135 -123q145 -205 107 -489q-45 -317 -282 -527t-516 -210
t-458 178l-141 -129l-49 63l141 127q-151 203 -108 509t279 516q237 210 521 210z" />
    <glyph glyph-name="Ugrave" unicode="&#xd9;" horiz-adv-x="1556" 
d="M1305 573l90 650q12 85 -17 117t-145 46l6 48h461l-6 -48q-119 -14 -158 -46t-51 -117l-94 -670q-39 -272 -206 -423q-167 -150 -430 -150t-377 150t-77 423l94 670q13 85 -15 117t-130 46l6 48h543l-6 -48q-109 -14 -145 -46t-48 -117l-90 -650q-72 -502 311 -501
q205 0 327 130t157 371zM1047 1536l-261 213q-59 49 -18 105t87 52q46 -5 65 -42l153 -305z" />
    <glyph glyph-name="Uacute" unicode="&#xda;" horiz-adv-x="1556" 
d="M1305 573l90 650q12 85 -17 117t-145 46l6 48h461l-6 -48q-119 -14 -158 -46t-51 -117l-94 -670q-39 -272 -206 -423q-167 -150 -430 -150t-377 150t-77 423l94 670q13 85 -15 117t-130 46l6 48h543l-6 -48q-109 -14 -145 -46t-48 -117l-90 -650q-72 -502 311 -501
q205 0 327 130t157 371zM1001 1559l240 305q29 35 76 41t76 -49t-47 -107l-320 -213z" />
    <glyph glyph-name="Ucircumflex" unicode="&#xdb;" horiz-adv-x="1556" 
d="M1305 573l90 650q12 85 -17 117t-145 46l6 48h461l-6 -48q-119 -14 -158 -46t-51 -117l-94 -670q-39 -272 -206 -423q-167 -150 -430 -150t-377 150t-77 423l94 670q13 85 -15 117t-130 46l6 48h543l-6 -48q-109 -14 -145 -46t-48 -117l-90 -650q-72 -502 311 -501
q205 0 327 130t157 371zM1063 1720l-258 -184h-55l307 369h61l205 -369h-57z" />
    <glyph glyph-name="Udieresis" unicode="&#xdc;" horiz-adv-x="1556" 
d="M1305 573l90 650q12 85 -17 117t-145 46l6 48h461l-6 -48q-119 -14 -158 -46t-51 -117l-94 -670q-39 -272 -206 -423q-167 -150 -430 -150t-377 150t-77 423l94 670q13 85 -15 117t-130 46l6 48h543l-6 -48q-109 -14 -145 -46t-48 -117l-90 -650q-72 -502 311 -501
q205 0 327 130t157 371zM1274 1784q49 0 78 -33q28 -33 20 -82t-45 -81t-86 -32t-78 32q-28 32 -20 82t45 82t86 32zM876 1784q48 0 76 -32q29 -32 21 -83t-45 -82t-86 -31t-77 32t-20 82q7 50 45 82t86 32z" />
    <glyph glyph-name="Yacute" unicode="&#xdd;" horiz-adv-x="1310" 
d="M334 1264q-18 46 -46 72t-83 50l6 48h502l-6 -48q-112 -16 -123 -60t18 -124l211 -563h4l344 553q102 168 -86 194l6 48h420l-6 -48q-82 -16 -124 -40t-79 -82l-424 -693l-51 -362q-11 -86 15 -118t131 -46l-7 -45h-542l6 45q108 14 144 46t48 118l39 272zM895 1559
l240 305q29 35 75 41t76 -49q29 -55 -47 -107l-319 -213z" />
    <glyph glyph-name="Thorn" unicode="&#xde;" horiz-adv-x="1249" 
d="M866 1147q225 0 334 -108t84 -279t-167 -296q-73 -65 -193 -104t-275 -38h-153l-17 -113q-12 -86 15 -118t131 -46l-7 -45h-542l6 45q108 14 144 46t48 118l142 1014q12 85 -16 117t-130 46l6 48h543l-6 -48q-109 -14 -145 -46t-47 -117l-11 -76h256zM649 399
q197 -1 296 93t120 245q24 124 -32 228q-58 104 -228 104h-205l-94 -670h143z" />
    <glyph glyph-name="germandbls" unicode="&#xdf;" horiz-adv-x="1275" 
d="M864 1577q170 0 246 -74t60 -195t-111 -214q-39 -37 -77 -70q-186 -162 -36 -281l180 -145q80 -66 107 -152t-1 -166q-63 -180 -232 -258q-88 -42 -192 -42t-165 53t-48 141t83 113t96 -15q16 -25 0 -63q-76 -168 66 -168q82 0 137 59t71 130t-10 115q-25 44 -90 99
l-151 129q-125 103 -43 255q29 54 51 84q23 30 65 87t74 141q31 84 40 168q9 83 -25 142t-111 59q-137 0 -199 -113q-61 -114 -98 -372l-131 -932q-37 -254 -188 -450t-269 -195q-96 0 -104 72q-6 59 41 92q30 23 74 7t83 -18q39 -1 64 19t38 47q24 50 33 185q9 136 23 241
l119 850h-133l10 72l135 10q47 279 197 416t321 137z" />
    <glyph glyph-name="agrave" unicode="&#xe0;" horiz-adv-x="1191" 
d="M566 106q104 0 186 138t106 309l16 117q43 307 -135 307q-119 0 -212 -123t-125 -332q-32 -208 14 -312t150 -104zM1057 96q33 0 75 45t78 150l54 -23q-53 -147 -121 -218q-68 -70 -172 -70t-140 63q-35 63 -24 141l8 70h-4q-63 -137 -144 -206t-200 -68q-158 0 -239 152
t-42 378q39 227 197 381t377 153q152 0 235 -94l84 84h51l-118 -825q-14 -113 45 -113zM844 1149l-27 -23l-262 213q-61 51 -16 107t90 50q45 -7 61 -42z" />
    <glyph glyph-name="aacute" unicode="&#xe1;" horiz-adv-x="1191" 
d="M566 106q104 0 186 138t106 309l16 117q43 307 -135 307q-119 0 -212 -123t-125 -332q-32 -208 14 -312t150 -104zM1057 96q33 0 75 45t78 150l54 -23q-53 -147 -121 -218q-68 -70 -172 -70t-140 63q-35 63 -24 141l8 70h-4q-63 -137 -144 -206t-200 -68q-158 0 -239 152
t-42 378q39 227 197 381t377 153q152 0 235 -94l84 84h51l-118 -825q-14 -113 45 -113zM756 1149l239 305q29 35 76 41t75 -49t-48 -107l-318 -213z" />
    <glyph glyph-name="acircumflex" unicode="&#xe2;" horiz-adv-x="1191" 
d="M566 106q104 0 186 138t106 309l16 117q43 307 -135 307q-119 0 -212 -123t-125 -332q-32 -208 14 -312t150 -104zM1057 96q33 0 75 45t78 150l54 -23q-53 -147 -121 -218q-68 -70 -172 -70t-140 63q-35 63 -24 141l8 70h-4q-63 -137 -144 -206t-200 -68q-158 0 -239 152
t-42 378q39 227 197 381t377 153q152 0 235 -94l84 84h51l-118 -825q-14 -113 45 -113zM829 1311l-256 -185h-55l307 369h62l205 -369h-58z" />
    <glyph glyph-name="atilde" unicode="&#xe3;" horiz-adv-x="1191" 
d="M566 106q104 0 186 138t106 309l16 117q43 307 -135 307q-119 0 -212 -123t-125 -332q-32 -208 14 -312t150 -104zM1057 96q33 0 75 45t78 150l54 -23q-53 -147 -121 -218q-68 -70 -172 -70t-140 63q-35 63 -24 141l8 70h-4q-63 -137 -144 -206t-200 -68q-158 0 -239 152
t-42 378q39 227 197 381t377 153q152 0 235 -94l84 84h51l-118 -825q-14 -113 45 -113zM1000 1341q46 -1 80 15t75 61l37 -24q-39 -59 -67 -97q-29 -38 -77 -78t-94 -40t-160 41t-164 41t-84 -22t-83 -77l-37 27q147 236 248 235q41 0 160 -41q120 -41 166 -41z" />
    <glyph glyph-name="adieresis" unicode="&#xe4;" horiz-adv-x="1191" 
d="M566 106q104 0 186 138t106 309l16 117q43 307 -135 307q-119 0 -212 -123t-125 -332q-32 -208 14 -312t150 -104zM1057 96q33 0 75 45t78 150l54 -23q-53 -147 -121 -218q-68 -70 -172 -70t-140 63q-35 63 -24 141l8 70h-4q-63 -137 -144 -206t-200 -68q-158 0 -239 152
t-42 378q39 227 197 381t377 153q152 0 235 -94l84 84h51l-118 -825q-14 -113 45 -113zM1018 1374q49 0 78 -33q28 -33 20 -81t-45 -81q-37 -32 -86 -32t-78 32q-28 32 -20 82q8 49 45 81t86 32zM620 1374q48 0 76 -32q29 -32 21 -82t-45 -82q-37 -31 -86 -31t-77 32t-20 82
q7 49 45 81t86 32z" />
    <glyph glyph-name="aring" unicode="&#xe5;" horiz-adv-x="1191" 
d="M566 106q104 0 186 138t106 309l16 117q43 307 -135 307q-119 0 -212 -123t-125 -332q-32 -208 14 -312t150 -104zM1057 96q33 0 75 45t78 150l54 -23q-53 -147 -121 -218q-68 -70 -172 -70t-140 63q-35 63 -24 141l8 70h-4q-63 -137 -144 -206t-200 -68q-158 0 -239 152
t-42 378q39 227 197 381t377 153q152 0 235 -94l84 84h51l-118 -825q-14 -113 45 -113zM832 1188q48 0 88 34q39 34 45 83q8 49 -22 83t-79 34t-87 -34t-45 -83t22 -83q30 -34 78 -34zM873 1489q77 0 123 -53t36 -131t-71 -131q-61 -54 -139 -54t-124 54q-44 54 -34 131
q10 78 71 131t138 53z" />
    <glyph glyph-name="ae" unicode="&#xe6;" horiz-adv-x="1533" 
d="M1229 973q-121 0 -212 -121t-112 -320q242 14 359 175q80 109 53 198q-22 66 -88 68zM1081 -20q-248 0 -348 188q-252 -188 -440 -188q-92 0 -149 71q-56 72 -42 174q27 180 297 228l291 49l33 205q20 121 -23 183t-123 62q-146 0 -188 -83q-16 -33 -16 -67t18 -54
q43 -48 -32 -94t-130 -31q-23 8 -28 22q-14 49 18 117q76 156 267 238q103 44 212 44q172 0 222 -129q158 129 332 129t236 -110t-22 -229q-146 -212 -565 -240q0 -156 69 -242t193 -86q209 0 316 164h45q-53 -135 -168 -228t-275 -93zM406 115q143 0 305 108
q-33 90 -23 217l-246 -53q-135 -31 -135 -158q0 -55 28 -85t71 -29z" />
    <glyph glyph-name="ccedilla" unicode="&#xe7;" horiz-adv-x="1052" 
d="M713 1044q182 0 272 -76t76 -180q-8 -52 -46 -82t-87 -30t-73 22t-17 54q45 217 -115 217q-127 0 -216 -108q-89 -107 -117 -301t45 -308t200 -115q205 0 315 164h45q-51 -129 -159 -220t-256 -99l-9 -64q-4 -23 28 -36t71 -20q38 -7 66 -41t20 -95q-14 -90 -130 -155
t-245 -83l-10 61q2 1 44 13q128 38 160 85q17 23 21 55t-13 54t-40 33q-58 25 -43 109l18 84q-186 14 -275 162t-57 379t188 376q157 145 339 145z" />
    <glyph glyph-name="egrave" unicode="&#xe8;" horiz-adv-x="1062" 
d="M710 973q-124 0 -212 -117t-109 -315q250 -41 387 104q90 95 75 201q-17 126 -141 127zM553 -20q-205 0 -303 152t-66 388q32 234 190 379q156 145 354 145t284 -129q76 -113 10 -237q-82 -158 -332 -201q-135 -25 -305 -6q-2 -160 70 -247t172 -87t190 46t133 118h45
q-53 -135 -168 -228t-274 -93zM838 1149l-27 -23l-262 213q-61 51 -16 107t90 50q45 -7 61 -42z" />
    <glyph glyph-name="eacute" unicode="&#xe9;" horiz-adv-x="1062" 
d="M710 973q-124 0 -212 -117t-109 -315q250 -41 387 104q90 95 75 201q-17 126 -141 127zM553 -20q-205 0 -303 152t-66 388q32 234 190 379q156 145 354 145t284 -129q76 -113 10 -237q-82 -158 -332 -201q-135 -25 -305 -6q-2 -160 70 -247t172 -87t190 46t133 118h45
q-53 -135 -168 -228t-274 -93zM713 1149l239 305q29 35 76 41t75 -49t-48 -107l-318 -213z" />
    <glyph glyph-name="ecircumflex" unicode="&#xea;" horiz-adv-x="1062" 
d="M710 973q-124 0 -212 -117t-109 -315q250 -41 387 104q90 95 75 201q-17 126 -141 127zM553 -20q-205 0 -303 152t-66 388q32 234 190 379q156 145 354 145t284 -129q76 -113 10 -237q-82 -158 -332 -201q-135 -25 -305 -6q-2 -160 70 -247t172 -87t190 46t133 118h45
q-53 -135 -168 -228t-274 -93zM784 1311l-256 -185h-55l307 369h62l205 -369h-58z" />
    <glyph glyph-name="edieresis" unicode="&#xeb;" horiz-adv-x="1062" 
d="M710 973q-124 0 -212 -117t-109 -315q250 -41 387 104q90 95 75 201q-17 126 -141 127zM553 -20q-205 0 -303 152t-66 388q32 234 190 379q156 145 354 145t284 -129q76 -113 10 -237q-82 -158 -332 -201q-135 -25 -305 -6q-2 -160 70 -247t172 -87t190 46t133 118h45
q-53 -135 -168 -228t-274 -93zM1001 1374q49 0 78 -33t21 -81t-45 -81q-37 -32 -86 -32t-78 32t-21 82q8 49 45 81t86 32zM569 1147q-49 0 -77 32t-19 82q8 49 45 81t85 32t77 -32q28 -32 20 -82t-45 -82q-37 -31 -86 -31z" />
    <glyph glyph-name="igrave" unicode="&#xec;" horiz-adv-x="690" 
d="M328 926q-84 0 -168 -195l-47 23q102 291 313 290q184 0 154 -229l-82 -606q-14 -113 49 -113q82 0 168 195l47 -23q-100 -289 -313 -288q-185 0 -156 229l82 604q14 113 -47 113zM551 1149l-27 -23l-262 213q-61 51 -16 107t90 50q45 -7 61 -42z" />
    <glyph glyph-name="iacute" unicode="&#xed;" horiz-adv-x="690" 
d="M328 926q-84 0 -168 -195l-47 23q102 291 313 290q184 0 154 -229l-82 -606q-14 -113 49 -113q82 0 168 195l47 -23q-100 -289 -313 -288q-185 0 -156 229l82 604q14 113 -47 113zM477 1149l240 305q29 35 75 41t75 -49q28 -55 -48 -107l-317 -213z" />
    <glyph glyph-name="icircumflex" unicode="&#xee;" horiz-adv-x="690" 
d="M328 926q-84 0 -168 -195l-47 23q102 291 313 290q184 0 154 -229l-82 -606q-14 -113 49 -113q82 0 168 195l47 -23q-100 -289 -313 -288q-185 0 -156 229l82 604q14 113 -47 113zM541 1311l-256 -185h-56l308 369h61l205 -369h-58z" />
    <glyph glyph-name="idieresis" unicode="&#xef;" horiz-adv-x="690" 
d="M328 926q-84 0 -168 -195l-47 23q102 291 313 290q184 0 154 -229l-82 -606q-14 -113 49 -113q82 0 168 195l47 -23q-100 -289 -313 -288q-185 0 -156 229l82 604q14 113 -47 113zM758 1374q49 0 78 -33q28 -33 20 -81t-45 -81q-37 -32 -86 -32t-78 32q-28 32 -20 82
q8 49 45 81t86 32zM359 1374q48 0 77 -32t21 -82t-45 -82q-37 -31 -86 -31t-77 32t-20 82q8 49 45 81t85 32z" />
    <glyph glyph-name="eth" unicode="&#xf0;" horiz-adv-x="1150" 
d="M704 932q-276 0 -337 -440t215 -441q276 1 338 441q60 440 -216 440zM504 1206l280 150q-55 150 -98 221h113q8 -16 100 -160l301 162l29 -70l-293 -157q268 -463 215 -830q-33 -244 -200 -394t-388 -148q-221 0 -339 145t-83 367t199 366q164 145 383 146q90 0 172 -33
q-33 160 -86 313l-274 -147z" />
    <glyph glyph-name="ntilde" unicode="&#xf1;" horiz-adv-x="1265" 
d="M967 1044q219 0 178 -307l-72 -528q-14 -113 49 -113q82 0 168 195l47 -23q-100 -289 -313 -288q-184 0 -156 229l70 522q12 86 -4 128t-72 42q-80 0 -194 -148t-138 -313l-61 -440h-205l111 813q14 113 -47 113q-84 0 -168 -195l-47 23q102 291 313 290q184 0 154 -229
l-15 -113h4q83 150 187 246t211 96zM1071 1341q47 -1 81 15t75 61l37 -24q-39 -59 -67 -97t-77 -78t-94 -40t-160 41t-165 41q-49 0 -83 -22t-83 -77l-37 27q147 236 247 235q41 0 160 -41t166 -41z" />
    <glyph glyph-name="ograve" unicode="&#xf2;" horiz-adv-x="1146" 
d="M580 51q236 0 301 461q66 461 -172 461q-233 0 -299 -461t170 -461zM184 512q34 229 182 381q148 151 360 151t313 -152t67 -380q-39 -229 -187 -381q-149 -151 -361 -151t-312 152t-62 380zM854 1149l-27 -23l-262 213q-61 51 -16 107t90 50q45 -7 61 -42z" />
    <glyph glyph-name="oacute" unicode="&#xf3;" horiz-adv-x="1146" 
d="M580 51q236 0 301 461q66 461 -172 461q-233 0 -299 -461t170 -461zM184 512q34 229 182 381q148 151 360 151t313 -152t67 -380q-39 -229 -187 -381q-149 -151 -361 -151t-312 152t-62 380zM733 1149l240 305q29 35 75 41t75 -49q28 -55 -48 -107l-317 -213z" />
    <glyph glyph-name="ocircumflex" unicode="&#xf4;" horiz-adv-x="1146" 
d="M580 51q236 0 301 461q66 461 -172 461q-233 0 -299 -461t170 -461zM184 512q34 229 182 381q148 151 360 151t313 -152t67 -380q-39 -229 -187 -381q-149 -151 -361 -151t-312 152t-62 380zM815 1311l-256 -185h-55l307 369h61l205 -369h-57z" />
    <glyph glyph-name="otilde" unicode="&#xf5;" horiz-adv-x="1146" 
d="M580 51q236 0 301 461q66 461 -172 461q-233 0 -299 -461t170 -461zM184 512q34 229 182 381q148 151 360 151t313 -152t67 -380q-39 -229 -187 -381q-149 -151 -361 -151t-312 152t-62 380zM1000 1341q46 -1 80 15t75 61l37 -24q-39 -59 -67 -97q-29 -38 -77 -78
t-94 -40t-160 41t-164 41t-84 -22t-83 -77l-37 27q147 236 248 235q41 0 160 -41q120 -41 166 -41z" />
    <glyph glyph-name="odieresis" unicode="&#xf6;" horiz-adv-x="1146" 
d="M580 51q236 0 301 461q66 461 -172 461q-233 0 -299 -461t170 -461zM184 512q34 229 182 381q148 151 360 151t313 -152t67 -380q-39 -229 -187 -381q-149 -151 -361 -151t-312 152t-62 380zM1018 1374q49 0 78 -33q28 -33 20 -81t-45 -81q-37 -32 -86 -32t-78 32
q-28 32 -20 82q8 49 45 81t86 32zM620 1374q48 0 76 -32q29 -32 21 -82t-45 -82q-37 -31 -86 -31t-77 32t-20 82q7 49 45 81t86 32z" />
    <glyph glyph-name="divide" unicode="&#xf7;" horiz-adv-x="1146" 
d="M281 588h747l-12 -82h-748zM685 737q-46 0 -73 31q-26 31 -19 77t43 77q36 30 81 30t71 -32t20 -76q-7 -45 -42 -76t-81 -31zM601 141q-46 0 -73 31q-26 31 -19 77t43 77q36 30 81 30t72 -32t19 -76q-8 -45 -42 -76q-35 -31 -81 -31z" />
    <glyph glyph-name="oslash" unicode="&#xf8;" horiz-adv-x="1146" 
d="M582 51q237 0 303 461q14 106 8 193l-481 -486q31 -168 170 -168zM713 973q-233 0 -299 -461q-16 -119 -11 -195l480 486q-35 170 -170 170zM1122 1044l49 -57l-114 -117q86 -145 50 -366t-184 -373q-148 -151 -345 -151t-295 108l-107 -108l-53 55l115 115
q-88 143 -50 362q34 229 182 381t361 151q174 0 281 -112z" />
    <glyph glyph-name="ugrave" unicode="&#xf9;" horiz-adv-x="1265" 
d="M483 -20q-219 0 -178 307l72 528q14 113 -49 113q-82 0 -168 -195l-47 23q100 289 313 288q184 0 156 -229l-70 -522q-12 -86 4 -128t72 -42q80 0 194 148t138 313l61 440h205l-111 -813q-14 -113 47 -113q84 0 168 195l47 -23q-102 -291 -313 -290q-184 0 -154 229
l15 113h-4q-83 -150 -187 -246t-211 -96zM817 1149l-26 -23l-263 213q-61 51 -16 107t90 50q45 -7 62 -42z" />
    <glyph glyph-name="uacute" unicode="&#xfa;" horiz-adv-x="1265" 
d="M483 -20q-219 0 -178 307l72 528q14 113 -49 113q-82 0 -168 -195l-47 23q100 289 313 288q184 0 156 -229l-70 -522q-12 -86 4 -128t72 -42q80 0 194 148t138 313l61 440h205l-111 -813q-14 -113 47 -113q84 0 168 195l47 -23q-102 -291 -313 -290q-184 0 -154 229
l15 113h-4q-83 -150 -187 -246t-211 -96zM748 1149l239 305q29 35 76 41t75 -49t-48 -107l-318 -213z" />
    <glyph glyph-name="ucircumflex" unicode="&#xfb;" horiz-adv-x="1265" 
d="M483 -20q-219 0 -178 307l72 528q14 113 -49 113q-82 0 -168 -195l-47 23q100 289 313 288q184 0 156 -229l-70 -522q-12 -86 4 -128t72 -42q80 0 194 148t138 313l61 440h205l-111 -813q-14 -113 47 -113q84 0 168 195l47 -23q-102 -291 -313 -290q-184 0 -154 229
l15 113h-4q-83 -150 -187 -246t-211 -96zM819 1311l-256 -185h-55l307 369h62l204 -369h-57z" />
    <glyph glyph-name="udieresis" unicode="&#xfc;" horiz-adv-x="1265" 
d="M483 -20q-219 0 -178 307l72 528q14 113 -49 113q-82 0 -168 -195l-47 23q100 289 313 288q184 0 156 -229l-70 -522q-12 -86 4 -128t72 -42q80 0 194 148t138 313l61 440h205l-111 -813q-14 -113 47 -113q84 0 168 195l47 -23q-102 -291 -313 -290q-184 0 -154 229
l15 113h-4q-83 -150 -187 -246t-211 -96zM1022 1374q49 0 78 -33q28 -33 20 -81t-45 -81q-37 -32 -86 -32t-78 32q-28 32 -20 82q8 49 45 81t86 32zM624 1374q48 0 76 -32t21 -82q-8 -50 -45 -82q-37 -31 -86 -31t-77 32q-27 32 -19 82q8 49 45 81t85 32z" />
    <glyph glyph-name="yacute" unicode="&#xfd;" horiz-adv-x="1191" 
d="M659 113q141 0 238 102q113 122 94 367q-10 139 -65 313q-31 94 39 132t131 -7q45 -31 53 -94q45 -352 -80 -700t-355 -564q-230 -215 -481 -215q-98 0 -116 72q-17 59 21 87t79 15q193 -55 416 99t325 450l-2 2q-182 -193 -403 -192q-141 0 -205 71q-63 72 -41 236
l72 526q14 113 -49 113q-84 0 -166 -195l-49 23q104 291 315 290q187 0 154 -231l-72 -522q-25 -178 147 -178zM711 1149l239 305q29 35 76 41t75 -49t-48 -107l-318 -213z" />
    <glyph glyph-name="thorn" unicode="&#xfe;" horiz-adv-x="1173" 
d="M143 -322l228 1606q11 88 -9 121t-118 33l6 47l348 92h18l-116 -809h4q63 135 145 206t201 70q158 0 239 -152t45 -368q-36 -217 -154 -350q-116 -133 -270 -174t-315 0l-47 -322q-12 -86 16 -118t130 -45l-7 -47h-518l6 47q94 13 125 45t43 118zM752 915
q-106 0 -187 -138q-82 -138 -104 -306l-53 -397q180 -66 324 52t186 386q28 197 -16 300t-150 103z" />
    <glyph glyph-name="ydieresis" unicode="&#xff;" horiz-adv-x="1191" 
d="M659 113q141 0 238 102q113 122 94 367q-10 139 -65 313q-31 94 39 132t131 -7q45 -31 53 -94q45 -352 -80 -700t-355 -564q-230 -215 -481 -215q-98 0 -116 72q-17 59 21 87t79 15q193 -55 416 99t325 450l-2 2q-182 -193 -403 -192q-141 0 -205 71q-63 72 -41 236
l72 526q14 113 -49 113q-84 0 -166 -195l-49 23q104 291 315 290q187 0 154 -231l-72 -522q-25 -178 147 -178zM1014 1374q49 0 78 -33q28 -33 20 -81t-45 -81q-37 -32 -86 -32t-78 32q-28 32 -20 82q8 49 45 81t86 32zM615 1374q48 0 77 -32t21 -82t-45 -82
q-37 -31 -86 -31t-77 32t-20 82q8 49 45 81t85 32z" />
    <glyph glyph-name="Amacron" unicode="&#x100;" horiz-adv-x="1433" 
d="M815 1192l-295 -627h430l-131 627h-4zM1272 168q12 -53 41 -77t110 -46l-6 -45h-553l6 45q109 14 141 57t13 127l-55 258h-486l-108 -227q-49 -92 -29 -146t135 -69l-6 -45h-461l6 45q109 16 150 39t72 84l618 1276h121zM635 1714h645l-10 -82h-645z" />
    <glyph glyph-name="amacron" unicode="&#x101;" horiz-adv-x="1191" 
d="M566 106q104 0 186 138t106 309l16 117q43 307 -135 307q-119 0 -212 -123t-125 -332q-32 -208 14 -312t150 -104zM1057 96q33 0 75 45t78 150l54 -23q-53 -147 -121 -218q-68 -70 -172 -70t-140 63q-35 63 -24 141l8 70h-4q-63 -137 -144 -206t-200 -68q-158 0 -239 152
t-42 378q39 227 197 381t377 153q152 0 235 -94l84 84h51l-118 -825q-14 -113 45 -113zM506 1305h645l-12 -82h-645z" />
    <glyph glyph-name="Abreve" unicode="&#x102;" horiz-adv-x="1433" 
d="M815 1192l-295 -627h430l-131 627h-4zM1272 168q12 -53 41 -77t110 -46l-6 -45h-553l6 45q109 14 141 57t13 127l-55 258h-486l-108 -227q-49 -92 -29 -146t135 -69l-6 -45h-461l6 45q109 16 150 39t72 84l618 1276h121zM936 1577q-129 0 -182 92t-37 217h53
q6 -76 59 -118t127 -42t140 42t92 118h51q-16 -125 -95 -217t-208 -92z" />
    <glyph glyph-name="abreve" unicode="&#x103;" horiz-adv-x="1191" 
d="M566 106q104 0 186 138t106 309l16 117q43 307 -135 307q-119 0 -212 -123t-125 -332q-32 -208 14 -312t150 -104zM1057 96q33 0 75 45t78 150l54 -23q-53 -147 -121 -218q-68 -70 -172 -70t-140 63q-35 63 -24 141l8 70h-4q-63 -137 -144 -206t-200 -68q-158 0 -239 152
t-42 378q39 227 197 381t377 153q152 0 235 -94l84 84h51l-118 -825q-14 -113 45 -113zM815 1167q-129 1 -182 93t-37 217h53q5 -76 59 -118t128 -42t140 42t91 118h51q-16 -125 -95 -217t-208 -93z" />
    <glyph glyph-name="Aogonek" unicode="&#x104;" horiz-adv-x="1433" 
d="M815 1192l-295 -625h430l-131 625h-4zM1061 -465q-49 0 -86 23q-82 47 -62 161q29 154 228 281h-277l6 45q109 14 141 57t13 127l-53 256h-490l-106 -225q-49 -92 -29 -146t135 -69l-6 -45h-461l6 45q109 16 150 39t72 84l618 1276h121l291 -1276q12 -53 41 -77t110 -46
l-6 -45h-215q-55 -45 -94 -104q-82 -123 -49 -210t186 -28l-6 -41q-76 -82 -178 -82z" />
    <glyph glyph-name="aogonek" unicode="&#x105;" horiz-adv-x="1191" 
d="M566 106q104 0 186 138t106 309l16 117q43 307 -135 307q-119 0 -212 -123t-125 -332q-32 -208 14 -312t150 -104zM880 -465q-99 0 -139 70q-39 69 9 177t180 200q-76 12 -105 72t-18 130l8 70h-4q-63 -137 -144 -206t-200 -68q-158 0 -239 152t-42 378q39 227 197 381
t377 153q152 0 235 -94l84 84h51l-118 -825q-14 -113 45 -113q33 0 75 45t78 150l54 -23q-48 -137 -110 -207t-159 -79q-41 -39 -71 -84q-82 -123 -50 -211t187 -29l-6 -41q-76 -82 -175 -82z" />
    <glyph glyph-name="Cacute" unicode="&#x106;" horiz-adv-x="1310" 
d="M784 57q170 1 292 99t175 237h56l-60 -291q-217 -123 -473 -122q-299 0 -463 208t-118 529q45 321 267 529t521 208q256 0 438 -123l-20 -293h-56q-16 140 -109 238t-263 98q-203 0 -359 -183t-196 -474t63 -475q102 -184 305 -185zM942 1559l240 305q30 35 76 41t75 -49
t-47 -107l-319 -213z" />
    <glyph glyph-name="cacute" unicode="&#x107;" horiz-adv-x="1052" 
d="M553 -20q-205 0 -303 152t-66 388q32 234 190 379q157 145 339 145t272 -76t76 -180q-8 -52 -46 -82t-87 -30t-73 22t-17 54q45 217 -115 217q-127 0 -216 -108q-89 -107 -117 -301t45 -308t200 -115q205 0 315 164h45q-53 -135 -167 -228t-275 -93zM745 1149l240 305
q29 35 76 41t75 -49t-49 -107l-317 -213z" />
    <glyph glyph-name="Ccircumflex" unicode="&#x108;" horiz-adv-x="1310" 
d="M784 57q170 1 292 99t175 237h56l-60 -291q-217 -123 -473 -122q-299 0 -463 208t-118 529q45 321 267 529t521 208q256 0 438 -123l-20 -293h-56q-16 140 -109 238t-263 98q-203 0 -359 -183t-196 -474t63 -475q102 -184 305 -185zM1001 1720l-258 -184h-55l307 369h62
l205 -369h-58z" />
    <glyph glyph-name="ccircumflex" unicode="&#x109;" horiz-adv-x="1052" 
d="M553 -20q-205 0 -303 152t-66 388q32 234 190 379q157 145 339 145t272 -76t76 -180q-8 -52 -46 -82t-87 -30t-73 22t-17 54q45 217 -115 217q-127 0 -216 -108q-89 -107 -117 -301t45 -308t200 -115q205 0 315 164h45q-53 -135 -167 -228t-275 -93zM807 1311l-256 -185
h-55l307 369h61l205 -369h-57z" />
    <glyph glyph-name="Cdotaccent" unicode="&#x10a;" horiz-adv-x="1310" 
d="M784 57q170 1 292 99t175 237h56l-60 -291q-217 -123 -473 -122q-299 0 -463 208t-118 529q45 321 267 529t521 208q256 0 438 -123l-20 -293h-56q-16 140 -109 238t-263 98q-203 0 -359 -183t-196 -474t63 -475q102 -184 305 -185zM1055 1817q51 0 82 -36t23 -87
t-48 -87q-41 -36 -92 -36t-82 35t-24 87q6 52 48 88t93 36z" />
    <glyph glyph-name="cdotaccent" unicode="&#x10b;" horiz-adv-x="1052" 
d="M553 -20q-205 0 -303 152t-66 388q32 234 190 379q157 145 339 145t272 -76t76 -180q-8 -52 -46 -82t-87 -30t-73 22t-17 54q45 217 -115 217q-127 0 -216 -108q-89 -107 -117 -301t45 -308t200 -115q205 0 315 164h45q-53 -135 -167 -228t-275 -93zM836 1407
q52 0 82 -36q32 -36 24 -87t-49 -87t-92 -36t-82 35t-24 87t48 88t93 36z" />
    <glyph glyph-name="Ccaron" unicode="&#x10c;" horiz-adv-x="1310" 
d="M784 57q170 1 292 99t175 237h56l-60 -291q-217 -123 -473 -122q-299 0 -463 208t-118 529q45 321 267 529t521 208q256 0 438 -123l-20 -293h-56q-16 140 -109 238t-263 98q-203 0 -359 -183t-196 -474t63 -475q102 -184 305 -185zM1018 1720l254 185h57l-307 -369h-61
l-205 369h55z" />
    <glyph glyph-name="ccaron" unicode="&#x10d;" horiz-adv-x="1052" 
d="M553 -20q-205 0 -303 152t-66 388q32 234 190 379q157 145 339 145t272 -76t76 -180q-8 -52 -46 -82t-87 -30t-73 22t-17 54q45 217 -115 217q-127 0 -216 -108q-89 -107 -117 -301t45 -308t200 -115q205 0 315 164h45q-53 -135 -167 -228t-275 -93zM821 1311l256 184h58
l-308 -369h-61l-205 369h55z" />
    <glyph glyph-name="Dcaron" unicode="&#x10e;" horiz-adv-x="1515" 
d="M696 0h-620l6 45q108 14 144 46t48 118l142 1014q12 85 -16 117t-130 46l6 48h621q334 0 504 -190t124 -518q-45 -328 -273 -527t-556 -199zM707 76q168 0 298 95q241 176 293 546q41 297 -63 468t-369 171h-225l-180 -1280h246zM971 1720l254 185h57l-307 -369h-62
l-204 369h55z" />
    <glyph glyph-name="dcaron" unicode="&#x10f;" horiz-adv-x="1271" 
d="M1480 1585q50 1 84 -21t45 -54q25 -73 13 -136q-20 -133 -116 -237t-201 -140l-21 47q133 57 189 168q43 82 0 109q-12 6 -29 6q-53 0 -85 38t-24 91t51 91q44 38 94 38zM1059 96q33 0 75 45t78 150l54 -23q-53 -147 -121 -218q-68 -70 -172 -70t-139 63t-25 141l8 70h-4
q-63 -135 -145 -205t-201 -69q-158 0 -239 152t-45 367q36 216 153 349q118 133 272 175t316 1l34 260q12 84 -10 118q-23 34 -114 36l4 47l348 92h20l-192 -1368q-14 -113 45 -113zM564 106q106 0 188 138t104 309l53 395q-180 66 -324 -52t-186 -384q-29 -198 15 -302
t150 -104z" />
    <glyph glyph-name="Dcroat" unicode="&#x110;" horiz-adv-x="1515" 
d="M707 76q168 0 298 95q241 176 293 546q41 297 -63 468t-369 171h-225l-84 -596h229l-12 -78h-229l-84 -606h246zM897 1434q334 0 504 -190t124 -518q-45 -328 -273 -527t-556 -199h-620l6 45q108 14 144 46t48 118l66 473h-231l12 78h231l64 463q12 85 -16 117t-130 46
l6 48h621z" />
    <glyph glyph-name="dcroat" unicode="&#x111;" horiz-adv-x="1193" 
d="M564 106q106 0 188 138t104 309l53 395q-180 66 -324 -52t-186 -384q-29 -198 15 -302t150 -104zM1059 96q33 0 75 45t78 150l54 -23q-53 -147 -121 -218q-68 -70 -172 -70t-139 63t-25 141l8 70h-4q-63 -135 -145 -205t-201 -69q-158 0 -239 152t-45 367q36 216 153 349
q118 133 272 175t316 1l12 98h-148l11 78h147l12 84q12 84 -10 118q-23 34 -114 36l4 47l348 92h20l-53 -377h168l-10 -78h-168l-129 -913q-14 -113 45 -113z" />
    <glyph glyph-name="Emacron" unicode="&#x112;" horiz-adv-x="1228" 
d="M741 760q102 0 162 45q59 45 88 162h56l-70 -492h-55q2 117 -45 162t-148 45h-184l-84 -606h379q108 0 188 66t113 190h55l-66 -332h-1054l6 45q108 14 144 46t48 118l142 1014q12 85 -16 117t-130 46l6 48h1035l-37 -334h-55q1 124 -55 190t-165 66h-358l-84 -596h184z
M582 1714h645l-10 -82h-646z" />
    <glyph glyph-name="emacron" unicode="&#x113;" horiz-adv-x="1062" 
d="M710 973q-124 0 -212 -117t-109 -315q250 -41 387 104q90 95 75 201q-17 126 -141 127zM553 -20q-205 0 -303 152t-66 388q32 234 190 379q156 145 354 145t284 -129q76 -113 10 -237q-82 -158 -332 -201q-135 -25 -305 -6q-2 -160 70 -247t172 -87t190 46t133 118h45
q-53 -135 -168 -228t-274 -93zM471 1305h645l-12 -82h-645z" />
    <glyph glyph-name="Ebreve" unicode="&#x114;" horiz-adv-x="1228" 
d="M741 760q102 0 162 45q59 45 88 162h56l-70 -492h-55q2 117 -45 162t-148 45h-184l-84 -606h379q108 0 188 66t113 190h55l-66 -332h-1054l6 45q108 14 144 46t48 118l142 1014q12 85 -16 117t-130 46l6 48h1035l-37 -334h-55q1 124 -55 190t-165 66h-358l-84 -596h184z
M895 1577q-129 0 -182 92t-37 217h53q6 -76 59 -118t127 -42t140 42t92 118h51q-16 -125 -95 -217t-208 -92z" />
    <glyph glyph-name="ebreve" unicode="&#x115;" horiz-adv-x="1062" 
d="M710 973q-124 0 -212 -117t-109 -315q250 -41 387 104q90 95 75 201q-17 126 -141 127zM553 -20q-205 0 -303 152t-66 388q32 234 190 379q156 145 354 145t284 -129q76 -113 10 -237q-82 -158 -332 -201q-135 -25 -305 -6q-2 -160 70 -247t172 -87t190 46t133 118h45
q-53 -135 -168 -228t-274 -93zM782 1167q-129 1 -182 93t-37 217h53q6 -76 60 -118t127 -42t139 42t92 118h51q-16 -125 -95 -217t-208 -93z" />
    <glyph glyph-name="Edotaccent" unicode="&#x116;" horiz-adv-x="1228" 
d="M741 760q102 0 162 45q59 45 88 162h56l-70 -492h-55q2 117 -45 162t-148 45h-184l-84 -606h379q108 0 188 66t113 190h55l-66 -332h-1054l6 45q108 14 144 46t48 118l142 1014q12 85 -16 117t-130 46l6 48h1035l-37 -334h-55q1 124 -55 190t-165 66h-358l-84 -596h184z
M918 1817q52 0 82 -36t23 -87t-48 -87t-92 -36t-82 35t-24 87t48 88t93 36z" />
    <glyph glyph-name="edotaccent" unicode="&#x117;" horiz-adv-x="1062" 
d="M710 973q-124 0 -212 -117t-109 -315q250 -41 387 104q90 95 75 201q-17 126 -141 127zM553 -20q-205 0 -303 152t-66 388q32 234 190 379q156 145 354 145t284 -129q76 -113 10 -237q-82 -158 -332 -201q-135 -25 -305 -6q-2 -160 70 -247t172 -87t190 46t133 118h45
q-53 -135 -168 -228t-274 -93zM817 1407q51 0 82 -36t24 -87t-49 -87t-92 -36q-51 0 -82 35q-30 35 -23 87t48 88t92 36z" />
    <glyph glyph-name="Eogonek" unicode="&#x118;" horiz-adv-x="1228" 
d="M984 -465q-108 0 -138 92q-37 111 74 244q57 70 149 129h-993l6 45q108 14 144 46t48 118l142 1014q12 85 -16 117t-130 46l6 48h1035l-37 -334h-55q1 124 -55 190t-165 66h-358l-84 -596h184q102 0 162 45q59 45 88 162h56l-70 -492h-55q2 117 -45 162t-148 45h-184
l-84 -606h379q108 0 188 66t113 190h55l-66 -332q-122 -100 -146 -218t54 -142q52 -15 136 18l-7 -41q-75 -82 -183 -82z" />
    <glyph glyph-name="eogonek" unicode="&#x119;" horiz-adv-x="1062" 
d="M710 973q-124 0 -212 -117t-109 -315q250 -41 387 104q90 95 75 201q-17 126 -141 127zM464 -465q-99 0 -138 70q-39 69 8 177t180 200q-184 14 -272 164t-56 378q32 230 188 375t354 145t284 -129q76 -113 10 -237q-82 -158 -332 -201q-135 -25 -305 -6q-2 -160 70 -247
t172 -87t190 46t133 118h45q-51 -131 -159 -221t-256 -98q-113 -106 -127 -218t69 -126q49 -9 123 20l-6 -41q-76 -82 -175 -82z" />
    <glyph glyph-name="Ecaron" unicode="&#x11a;" horiz-adv-x="1228" 
d="M741 760q102 0 162 45q59 45 88 162h56l-70 -492h-55q2 117 -45 162t-148 45h-184l-84 -606h379q108 0 188 66t113 190h55l-66 -332h-1054l6 45q108 14 144 46t48 118l142 1014q12 85 -16 117t-130 46l6 48h1035l-37 -334h-55q1 124 -55 190t-165 66h-358l-84 -596h184z
M920 1720l254 185h57l-307 -369h-62l-205 369h56z" />
    <glyph glyph-name="ecaron" unicode="&#x11b;" horiz-adv-x="1062" 
d="M710 973q-124 0 -212 -117t-109 -315q250 -41 387 104q90 95 75 201q-17 126 -141 127zM553 -20q-205 0 -303 152t-66 388q32 234 190 379q156 145 354 145t284 -129q76 -113 10 -237q-82 -158 -332 -201q-135 -25 -305 -6q-2 -160 70 -247t172 -87t190 46t133 118h45
q-53 -135 -168 -228t-274 -93zM799 1311l256 184h57l-307 -369h-62l-204 369h55z" />
    <glyph glyph-name="Gcircumflex" unicode="&#x11c;" horiz-adv-x="1433" 
d="M774 -20q-299 0 -463 208t-118 529q45 321 267 529t521 208q256 0 438 -123l-20 -293h-56q-16 140 -109 238t-263 98q-203 0 -359 -183t-196 -474t63 -475q102 -184 305 -185q174 0 314 115l37 258q12 86 -14 118t-134 46l6 45h512l-6 -45q-90 -14 -119 -45t-41 -119
l-41 -287q-84 -57 -234 -110t-290 -53zM1010 1720l-258 -184h-56l308 369h61l205 -369h-58z" />
    <glyph glyph-name="gcircumflex" unicode="&#x11d;" horiz-adv-x="1105" 
d="M655 1044q109 0 248 -59l285 31l-17 -115h-213v-4q70 -104 56 -221q-25 -174 -153 -276t-310 -103q-76 0 -137 20l-16 -16q-11 -12 -14 -16q-3 -5 -12 -15q-28 -33 -28 -67q0 -57 121 -70l280 -31q143 -16 227 -83t83 -173q-1 -178 -187 -288t-417 -111q-379 0 -379 205
q0 86 60 159t179 152q-61 10 -104 50t-43 102q-1 104 198 223q-98 43 -146 129t-34 203q25 166 158 270t315 104zM266 -307q0 -82 69 -128t191 -46t228 64q106 65 106 181q0 66 -57 97t-168 47l-277 41q-92 -125 -92 -256zM629 973q-96 0 -163 -83t-75 -224q-8 -142 40 -220
t146 -78t156 84q57 83 69 220t-33 219q-44 82 -140 82zM698 1311l-256 -185h-55l307 369h62l205 -369h-58z" />
    <glyph glyph-name="Gbreve" unicode="&#x11e;" horiz-adv-x="1433" 
d="M774 -20q-299 0 -463 208t-118 529q45 321 267 529t521 208q256 0 438 -123l-20 -293h-56q-16 140 -109 238t-263 98q-203 0 -359 -183t-196 -474t63 -475q102 -184 305 -185q174 0 314 115l37 258q12 86 -14 118t-134 46l6 45h512l-6 -45q-90 -14 -119 -45t-41 -119
l-41 -287q-84 -57 -234 -110t-290 -53zM993 1577q-129 0 -182 92t-37 217h53q5 -76 59 -118t128 -42t140 42t91 118h51q-16 -125 -95 -217t-208 -92z" />
    <glyph glyph-name="gbreve" unicode="&#x11f;" horiz-adv-x="1105" 
d="M655 1044q109 0 248 -59l285 31l-17 -115h-213v-4q70 -104 56 -221q-25 -174 -153 -276t-310 -103q-76 0 -137 20l-16 -16q-11 -12 -14 -16q-3 -5 -12 -15q-28 -33 -28 -67q0 -57 121 -70l280 -31q143 -16 227 -83t83 -173q-1 -178 -187 -288t-417 -111q-379 0 -379 205
q0 86 60 159t179 152q-61 10 -104 50t-43 102q-1 104 198 223q-98 43 -146 129t-34 203q25 166 158 270t315 104zM266 -307q0 -82 69 -128t191 -46t228 64q106 65 106 181q0 66 -57 97t-168 47l-277 41q-92 -125 -92 -256zM629 973q-96 0 -163 -83t-75 -224q-8 -142 40 -220
t146 -78t156 84q57 83 69 220t-33 219q-44 82 -140 82zM711 1167q-129 1 -183 93t-36 217h53q6 -76 59 -118t127 -42q73 0 139 42t93 118h51q-16 -125 -95 -217t-208 -93z" />
    <glyph glyph-name="Gdotaccent" unicode="&#x120;" horiz-adv-x="1433" 
d="M774 -20q-299 0 -463 208t-118 529q45 321 267 529t521 208q256 0 438 -123l-20 -293h-56q-16 140 -109 238t-263 98q-203 0 -359 -183t-196 -474t63 -475q102 -184 305 -185q174 0 314 115l37 258q12 86 -14 118t-134 46l6 45h512l-6 -45q-90 -14 -119 -45t-41 -119
l-41 -287q-84 -57 -234 -110t-290 -53zM1053 1817q51 0 82 -36t23 -87t-48 -87q-41 -36 -92 -36t-82 35t-24 87q6 52 48 88t93 36z" />
    <glyph glyph-name="gdotaccent" unicode="&#x121;" horiz-adv-x="1105" 
d="M655 1044q109 0 248 -59l285 31l-17 -115h-213v-4q70 -104 56 -221q-25 -174 -153 -276t-310 -103q-76 0 -137 20l-16 -16q-11 -12 -14 -16q-3 -5 -12 -15q-28 -33 -28 -67q0 -57 121 -70l280 -31q143 -16 227 -83t83 -173q-1 -178 -187 -288t-417 -111q-379 0 -379 205
q0 86 60 159t179 152q-61 10 -104 50t-43 102q-1 104 198 223q-98 43 -146 129t-34 203q25 166 158 270t315 104zM266 -307q0 -82 69 -128t191 -46t228 64q106 65 106 181q0 66 -57 97t-168 47l-277 41q-92 -125 -92 -256zM629 973q-96 0 -163 -83t-75 -224q-8 -142 40 -220
t146 -78t156 84q57 83 69 220t-33 219q-44 82 -140 82zM731 1407q51 0 82 -36t24 -87t-49 -87t-92 -36q-51 0 -82 35q-30 35 -23 87t48 88t92 36z" />
    <glyph glyph-name="Gcommaaccent" unicode="&#x122;" horiz-adv-x="1433" 
d="M738 -94q50 0 84 -22t45 -54q26 -75 14 -135q-21 -133 -117 -237t-201 -140l-20 47q133 57 188 168q43 82 0 109l-29 6q-53 0 -85 38q-31 38 -23 91t51 91t93 38zM774 -20q-299 0 -463 208t-118 529q45 321 267 529t521 208q256 0 438 -123l-20 -293h-56
q-16 140 -109 238t-263 98q-203 0 -359 -183t-196 -474t63 -475q102 -184 305 -185q174 0 314 115l37 258q12 86 -14 118t-134 46l6 45h512l-6 -45q-90 -14 -119 -45t-41 -119l-41 -287q-84 -57 -234 -110t-290 -53z" />
    <glyph glyph-name="gcommaaccent" unicode="&#x123;" horiz-adv-x="1105" 
d="M800 1729q50 0 84 -22q34 -21 45 -53q25 -73 13 -136q-20 -134 -116 -238t-201 -139l-21 47q133 57 189 168q43 82 0 108q-12 6 -29 6q-53 0 -85 38t-24 92q7 54 51 91q44 38 94 38zM655 1044q109 0 248 -59l285 31l-17 -115h-213v-4q70 -104 56 -221q-25 -174 -153 -276
t-310 -103q-76 0 -137 20l-16 -16q-11 -12 -14 -16q-3 -5 -12 -15q-28 -33 -28 -67q0 -57 121 -70l280 -31q143 -16 227 -83t83 -173q-1 -178 -187 -288t-417 -111q-379 0 -379 205q0 86 60 159t179 152q-61 10 -104 50t-43 102q-1 104 198 223q-98 43 -146 129t-34 203
q25 166 158 270t315 104zM266 -307q0 -82 69 -128t191 -46t228 64q106 65 106 181q0 66 -57 97t-168 47l-277 41q-92 -125 -92 -256zM629 973q-96 0 -163 -83t-75 -224q-8 -142 40 -220t146 -78t156 84q57 83 69 220t-33 219q-44 82 -140 82z" />
    <glyph glyph-name="Hcircumflex" unicode="&#x124;" horiz-adv-x="1597" 
d="M1522 1223l-142 -1014q-12 -86 15 -118t131 -46l-6 -45h-543l6 45q109 14 145 46t48 118l67 483h-696l-68 -483q-12 -86 15 -118t131 -46l-7 -45h-542l6 45q108 14 144 46t48 118l142 1014q12 85 -16 117t-130 46l6 48h543l-6 -48q-109 -14 -145 -46t-47 -117l-64 -453
h696l64 453q13 85 -15 117t-131 46l7 48h542l-6 -48q-108 -14 -144 -46t-48 -117zM1049 1720l-258 -184h-56l307 369h62l205 -369h-58z" />
    <glyph glyph-name="hcircumflex" unicode="&#x125;" horiz-adv-x="1185" 
d="M782 901q-80 0 -194 -148t-137 -313l-62 -440h-205l178 1284q12 84 -10 118q-23 34 -114 36l4 47l348 92h20l-125 -875h4q83 150 187 246t211 96q219 0 178 -307l-72 -528q-14 -113 49 -113q82 0 168 195l47 -23q-100 -289 -313 -288q-185 0 -156 229l70 522
q12 86 -4 128t-72 42zM510 1782l-256 -185h-55l307 369h61l205 -369h-57z" />
    <glyph glyph-name="Hbar" unicode="&#x126;" horiz-adv-x="1597" 
d="M557 770h696l27 188h-696zM221 1036h170l25 187q12 85 -16 117t-130 46l6 48h543l-6 -48q-109 -14 -145 -46t-47 -117l-25 -187h696l25 187q13 85 -15 117t-131 46l7 48h542l-6 -48q-108 -14 -144 -46t-48 -117l-25 -187h168l-12 -78h-168l-105 -749q-12 -86 15 -118
t131 -46l-6 -45h-543l6 45q109 14 145 46t48 118l67 483h-696l-68 -483q-12 -86 15 -118t131 -46l-7 -45h-542l6 45q108 14 144 46t48 118l105 749h-170z" />
    <glyph glyph-name="hbar" unicode="&#x127;" horiz-adv-x="1185" 
d="M782 901q-80 0 -194 -148t-137 -313l-62 -440h-205l156 1122h-147l10 78h147l12 84q12 84 -10 118q-23 34 -114 36l4 47l348 92h20l-53 -377h168l-10 -78h-170l-60 -420h4q83 150 187 246t211 96q219 0 178 -307l-72 -528q-14 -113 49 -113q82 0 168 195l47 -23
q-100 -289 -313 -288q-185 0 -156 229l70 522q12 86 -4 128t-72 42z" />
    <glyph glyph-name="Itilde" unicode="&#x128;" horiz-adv-x="696" 
d="M621 1223l-142 -1014q-12 -86 15 -118t131 -46l-7 -45h-542l6 45q108 14 144 46t48 118l142 1014q12 85 -16 117t-130 46l6 48h543l-6 -48q-109 -14 -145 -46t-47 -117zM451 1833q41 0 159 -41t167 -41q48 0 82 15t73 61l37 -25q-137 -215 -236 -215q-49 0 -163 41
t-164 41q-50 1 -83 -21q-34 -22 -83 -77l-37 26q147 236 248 236z" />
    <glyph glyph-name="itilde" unicode="&#x129;" horiz-adv-x="690" 
d="M328 926q-84 0 -168 -195l-47 23q102 291 313 290q184 0 154 -229l-82 -606q-14 -113 49 -113q82 0 168 195l47 -23q-100 -289 -313 -288q-185 0 -156 229l82 604q14 113 -47 113zM735 1341q47 -1 81 15t75 61l37 -24q-39 -59 -67 -97t-77 -78t-94 -40t-160 41
q-114 41 -164 41t-84 -22t-83 -77l-37 27q147 236 248 235q42 0 160 -41t165 -41z" />
    <glyph glyph-name="Imacron" unicode="&#x12a;" horiz-adv-x="696" 
d="M621 1223l-142 -1014q-12 -86 15 -118t131 -46l-7 -45h-542l6 45q108 14 144 46t48 118l142 1014q12 85 -16 117t-130 46l6 48h543l-6 -48q-109 -14 -145 -46t-47 -117zM264 1714h645l-10 -82h-645z" />
    <glyph glyph-name="imacron" unicode="&#x12b;" horiz-adv-x="690" 
d="M328 926q-84 0 -168 -195l-47 23q102 291 313 290q184 0 154 -229l-82 -606q-14 -113 49 -113q82 0 168 195l47 -23q-100 -289 -313 -288q-185 0 -156 229l82 604q14 113 -47 113zM223 1305h645l-12 -82h-645z" />
    <glyph glyph-name="Ibreve" unicode="&#x12c;" horiz-adv-x="696" 
d="M621 1223l-142 -1014q-12 -86 15 -118t131 -46l-7 -45h-542l6 45q108 14 144 46t48 118l142 1014q12 85 -16 117t-130 46l6 48h543l-6 -48q-109 -14 -145 -46t-47 -117zM571 1577q-129 0 -182 92t-37 217h54q6 -76 59 -118t127 -42t140 42t91 118h51q-16 -125 -95 -217
t-208 -92z" />
    <glyph glyph-name="ibreve" unicode="&#x12d;" horiz-adv-x="690" 
d="M328 926q-84 0 -168 -195l-47 23q102 291 313 290q184 0 154 -229l-82 -606q-14 -113 49 -113q82 0 168 195l47 -23q-100 -289 -313 -288q-185 0 -156 229l82 604q14 113 -47 113zM530 1167q-129 1 -182 93t-37 217h54q6 -76 59 -118t127 -42q73 0 139 42t92 118h52
q-16 -125 -96 -217t-208 -93z" />
    <glyph glyph-name="Iogonek" unicode="&#x12e;" horiz-adv-x="696" 
d="M256 -465q-108 0 -137 92q-37 111 74 244q57 70 149 129h-266l6 45q108 14 144 46t48 118l142 1014q12 85 -16 117t-130 46l6 48h543l-6 -48q-109 -14 -145 -46t-47 -117l-142 -1014q-12 -86 15 -118t131 -46l-7 -45h-215q-121 -100 -145 -218t53 -142q51 -15 135 18
l-6 -41q-76 -82 -184 -82z" />
    <glyph glyph-name="iogonek" unicode="&#x12f;" horiz-adv-x="690" 
d="M578 1516q58 0 93 -41q37 -41 27 -99t-56 -100q-46 -41 -103 -41t-94 41q-35 41 -25 98q8 58 54 100t104 42zM336 -465q-108 1 -140 103q-34 102 76 235q51 59 127 113q-131 27 -106 223l82 604q14 113 -47 113q-84 0 -168 -195l-47 23q102 291 313 290q184 0 154 -229
l-82 -606q-14 -113 49 -113q82 0 168 195l47 -23q-100 -281 -303 -288q-113 -106 -126 -217t70 -125q49 -9 123 20l-6 -41q-76 -82 -184 -82z" />
    <glyph glyph-name="Idotaccent" unicode="&#x130;" horiz-adv-x="696" 
d="M621 1223l-142 -1014q-12 -86 15 -118t131 -46l-7 -45h-542l6 45q108 14 144 46t48 118l142 1014q12 85 -16 117t-130 46l6 48h543l-6 -48q-109 -14 -145 -46t-47 -117zM598 1817q51 0 82 -36t24 -87q-6 -51 -48 -87t-93 -36t-82 35q-30 35 -23 87t48 88t92 36z" />
    <glyph glyph-name="dotlessi" unicode="&#x131;" horiz-adv-x="690" 
d="M328 926q-84 0 -168 -195l-47 23q102 291 313 290q184 0 154 -229l-82 -606q-14 -113 49 -113q82 0 168 195l47 -23q-100 -289 -313 -288q-185 0 -156 229l82 604q14 113 -47 113z" />
    <glyph glyph-name="IJ" unicode="&#x132;" horiz-adv-x="1515" 
d="M1440 1223l-94 -670q-36 -260 -176 -417t-324 -156q-106 0 -117 71q-8 55 38 87q45 32 111 0t109 -40t69 21t35 73t18 119q9 76 13 105l113 807q13 85 -15 117t-130 46l6 48h542l-6 -48q-108 -14 -144 -46t-48 -117zM621 1223l-142 -1014q-12 -86 15 -118t131 -46l-7 -45
h-542l6 45q108 14 144 46t48 118l142 1014q12 85 -16 117t-130 46l6 48h543l-6 -48q-109 -14 -145 -46t-47 -117z" />
    <glyph glyph-name="ij" unicode="&#x133;" horiz-adv-x="1241" 
d="M1210 1516q58 0 94 -41t26 -99t-55 -100q-45 -41 -103 -41t-94 41q-35 41 -25 98q8 58 54 100t103 42zM963 926q-84 0 -168 -195l-47 23q102 291 313 290q184 0 153 -229l-100 -723q-34 -252 -186 -448t-271 -197q-96 0 -104 72q-6 59 41 92q30 23 74 7q136 -52 185 48
q22 45 34 204q13 159 22 222l101 721q14 113 -47 113zM578 1516q58 0 93 -41q37 -41 27 -99t-56 -100q-46 -41 -103 -41t-94 41q-35 41 -25 98q8 58 54 100t104 42zM328 926q-84 0 -168 -195l-47 23q102 291 313 290q184 0 154 -229l-82 -606q-14 -113 49 -113q82 0 168 195
l47 -23q-100 -289 -313 -288q-185 0 -156 229l82 604q14 113 -47 113z" />
    <glyph glyph-name="Jcircumflex" unicode="&#x134;" 
d="M743 1223l-94 -670q-37 -260 -176 -417t-323 -156q-106 0 -117 71q-8 57 38 88q45 31 111 -1t109 -40t69 21t34 73q13 64 20 124t12 100l113 807q12 85 -16 117t-130 46l6 48h543l-6 -48q-109 -14 -145 -46t-48 -117zM713 1720l-258 -184h-56l308 369h61l205 -369h-58z
" />
    <glyph glyph-name="jcircumflex" unicode="&#x135;" horiz-adv-x="608" 
d="M549 1311l-256 -185h-55l307 369h61l205 -369h-57zM330 926q-84 0 -168 -195l-47 23q102 291 313 290q184 0 154 -229l-101 -723q-35 -252 -187 -448t-269 -197q-96 0 -105 72q-6 59 41 92q31 23 75 7q136 -51 184 48q25 52 34 193t22 233l101 721q14 113 -47 113z" />
    <glyph glyph-name="Kcommaaccent" unicode="&#x136;" horiz-adv-x="1503" 
d="M788 860l293 311q65 65 75 131q4 32 -24 54t-90 30l7 48h522l-6 -48q-209 -29 -328 -157l-416 -445l375 -534q123 -172 262 -205l-6 -45h-610l6 45q195 27 80 195l-246 358q-37 53 -61 68q-25 14 -76 14l-66 -471q-12 -86 15 -118t131 -46l-7 -45h-542l6 45
q108 14 144 46t48 118l142 1014q12 85 -16 117t-130 46l6 48h543l-6 -48q-109 -14 -145 -46t-47 -117l-64 -465q82 0 128 22t103 80zM693 -80q50 0 84 -22t45 -53q26 -75 14 -136q-20 -133 -116 -237t-202 -140l-20 47q133 57 188 168q43 82 0 109l-29 6q-53 0 -85 38
t-24 91t52 91q43 38 93 38z" />
    <glyph glyph-name="kcommaaccent" unicode="&#x137;" horiz-adv-x="1189" 
d="M593 -94q50 0 84 -22t45 -54q25 -73 13 -135q-21 -133 -117 -237t-200 -140l-21 47q133 57 189 168q43 82 0 109l-29 6q-53 0 -85 38t-24 91t52 91q43 38 93 38zM1042 102q80 0 170 189l50 -23q-64 -147 -138 -218q-74 -70 -175 -70t-151 45t-91 127l-187 370
q-53 -6 -59 -8l-72 -514h-205l178 1284q12 88 -7 121t-117 33l4 47l348 92h20l-143 -1008q247 33 391 186q82 87 72 197q-6 63 56 87t101 -25q72 -103 -82 -268q-97 -103 -280 -168l213 -392q45 -84 104 -84z" />
    <glyph glyph-name="kgreenlandic" unicode="&#x138;" horiz-adv-x="1212" 
d="M1065 102q80 0 170 189l49 -23q-63 -147 -137 -218q-73 -70 -175 -70t-152 45t-91 127l-186 370q-53 -6 -60 -8l-71 -514h-205l102 752q12 88 -7 120t-118 33l4 47l349 92h20l-68 -475q246 33 392 186q82 87 71 197q-6 63 56 87t102 -25q23 -33 20 -82q-6 -82 -103 -186
t-279 -168l213 -392q45 -84 104 -84z" />
    <glyph glyph-name="Lacute" unicode="&#x139;" horiz-adv-x="1187" 
d="M840 76q108 0 188 66t113 190h55l-66 -332h-1054l6 45q108 14 144 46t48 118l142 1014q12 85 -16 117t-130 46l6 48h543l-6 -48q-109 -14 -145 -46t-47 -117l-160 -1147h379zM539 1559l239 305q29 37 76 42t76 -50t-47 -107l-320 -213z" />
    <glyph glyph-name="lacute" unicode="&#x13a;" horiz-adv-x="608" 
d="M465 96q82 0 168 195l47 -23q-100 -289 -313 -288q-189 0 -156 229l149 1075q12 88 -7 121t-117 33l4 47l348 92h20l-192 -1368q-14 -113 49 -113zM430 1681l240 306q30 35 76 41t74 -49t-48 -107l-317 -213z" />
    <glyph glyph-name="Lcommaaccent" unicode="&#x13b;" horiz-adv-x="1187" 
d="M840 76q108 0 188 66t113 190h55l-66 -332h-1054l6 45q108 14 144 46t48 118l142 1014q12 85 -16 117t-130 46l6 48h543l-6 -48q-109 -14 -145 -46t-47 -117l-160 -1147h379zM599 -78q50 0 84 -22t45 -53q25 -73 13 -136q-20 -133 -116 -237t-201 -140l-21 48
q133 57 189 167q43 82 0 109l-29 6q-53 0 -85 38t-24 91t52 91q43 38 93 38z" />
    <glyph glyph-name="lcommaaccent" unicode="&#x13c;" horiz-adv-x="608" 
d="M290 -94q50 0 84 -22t45 -54q25 -73 13 -135q-20 -133 -116 -237t-201 -140l-21 47q133 57 189 168q43 82 0 109l-29 6q-53 0 -85 38t-24 91q7 53 51 91t94 38zM465 96q82 0 168 195l47 -23q-100 -289 -313 -288q-189 0 -156 229l149 1075q12 88 -7 121t-117 33l4 47
l348 92h20l-192 -1368q-14 -113 49 -113z" />
    <glyph glyph-name="Lcaron" unicode="&#x13d;" horiz-adv-x="1187" 
d="M840 76q108 0 188 66t113 190h55l-66 -332h-1054l6 45q108 14 144 46t48 118l142 1014q12 85 -16 117t-130 46l6 48h543l-6 -48q-109 -14 -145 -46t-47 -117l-160 -1147h379zM1099 1464q50 0 84 -22t45 -52q25 -73 13 -137q-21 -133 -117 -237t-200 -139l-21 47
q133 57 189 168q43 82 0 108q-12 6 -29 6q-53 0 -85 38t-24 91t52 91t93 38z" />
    <glyph glyph-name="lcaron" unicode="&#x13e;" horiz-adv-x="614" 
d="M863 1585q50 1 84 -21t45 -54q26 -75 14 -136q-20 -133 -116 -237t-202 -140l-20 47q133 57 188 168q43 82 0 109q-12 6 -29 6q-53 0 -85 38t-24 91t52 91q43 38 93 38zM465 96q82 0 168 195l47 -23q-100 -289 -313 -288q-189 0 -156 229l149 1075q12 88 -7 121t-117 33
l4 47l348 92h20l-192 -1368q-14 -113 49 -113z" />
    <glyph glyph-name="Ldot" unicode="&#x13f;" horiz-adv-x="1187" 
d="M840 76q108 0 188 66t113 190h55l-66 -332h-1054l6 45q108 14 144 46t48 118l142 1014q12 85 -16 117t-130 46l6 48h543l-6 -48q-109 -14 -145 -46t-47 -117l-160 -1147h379zM842 858q49 0 77 -33q29 -33 21 -82t-44 -81t-85 -31t-77 31t-23 81q8 51 45 83t86 32z" />
    <glyph glyph-name="ldot" unicode="&#x140;" horiz-adv-x="749" 
d="M731 848q49 0 77 -33t20 -82t-43 -81q-36 -32 -85 -32q-50 0 -78 32q-28 30 -22 81q8 51 45 83t86 32zM465 96q82 0 168 195l47 -23q-100 -289 -313 -288q-189 0 -156 229l149 1075q12 88 -7 121t-117 33l4 47l348 92h20l-192 -1368q-14 -113 49 -113z" />
    <glyph glyph-name="Lslash" unicode="&#x141;" horiz-adv-x="1187" 
d="M840 76q108 0 188 66t113 190h55l-66 -332h-1054l6 45q108 14 144 46t48 118l66 473h-170l12 78h170l64 463q12 85 -16 117t-130 46l6 48h543l-6 -48q-109 -14 -145 -46t-47 -117l-64 -463h229l-12 -78h-229l-84 -606h379z" />
    <glyph glyph-name="lslash" unicode="&#x142;" horiz-adv-x="608" 
d="M465 96q82 0 168 195l47 -23q-100 -289 -313 -288q-188 0 -156 229l65 473h-147l10 78h150l71 524q12 88 -7 121t-117 33l4 47l348 92h20l-114 -817h147l-10 -78h-150l-65 -473q-14 -113 49 -113z" />
    <glyph glyph-name="Nacute" unicode="&#x143;" horiz-adv-x="1495" 
d="M1217 352l120 871q13 89 -15 119t-144 44l6 48h454l-6 -48q-118 -14 -156 -46t-51 -117l-170 -1223h-125l-608 1243l-145 -1034q-13 -88 15 -119t147 -45l-7 -45h-456l6 45q115 14 154 46t51 118l141 1014q12 85 -18 117t-140 46l6 48h420zM942 1559l240 305q30 35 76 41
t75 -49t-47 -107l-319 -213z" />
    <glyph glyph-name="nacute" unicode="&#x144;" horiz-adv-x="1265" 
d="M967 1044q219 0 178 -307l-72 -528q-14 -113 49 -113q82 0 168 195l47 -23q-100 -289 -313 -288q-184 0 -156 229l70 522q12 86 -4 128t-72 42q-80 0 -194 -148t-138 -313l-61 -440h-205l111 813q14 113 -47 113q-84 0 -168 -195l-47 23q102 291 313 290q184 0 154 -229
l-15 -113h4q83 150 187 246t211 96zM811 1149l240 305q29 35 75 41t75 -49q28 -55 -48 -107l-317 -213z" />
    <glyph glyph-name="Ncommaaccent" unicode="&#x145;" horiz-adv-x="1495" 
d="M1217 352l120 871q13 89 -15 119t-144 44l6 48h454l-6 -48q-118 -14 -156 -46t-51 -117l-170 -1223h-125l-608 1243l-145 -1034q-13 -88 15 -119t147 -45l-7 -45h-456l6 45q115 14 154 46t51 118l141 1014q12 85 -18 117t-140 46l6 48h420zM697 -94q50 0 84 -22t45 -54
q26 -75 14 -135q-20 -133 -116 -237t-202 -140l-20 47q133 57 188 168q43 82 0 109l-28 6q-53 0 -85 38t-24 91t51 91t93 38z" />
    <glyph glyph-name="ncommaaccent" unicode="&#x146;" horiz-adv-x="1265" 
d="M669 -94q50 0 84 -22t45 -54q25 -73 13 -135q-21 -133 -117 -237t-200 -140l-21 47q133 57 189 168q43 82 0 109l-29 6q-53 0 -85 38t-24 91t51 91q44 38 94 38zM967 1044q219 0 178 -307l-72 -528q-14 -113 49 -113q82 0 168 195l47 -23q-100 -289 -313 -288
q-184 0 -156 229l70 522q12 86 -4 128t-72 42q-80 0 -194 -148t-138 -313l-61 -440h-205l111 813q14 113 -47 113q-84 0 -168 -195l-47 23q102 291 313 290q184 0 154 -229l-15 -113h4q83 150 187 246t211 96z" />
    <glyph glyph-name="Ncaron" unicode="&#x147;" horiz-adv-x="1495" 
d="M1217 352l120 871q13 89 -15 119t-144 44l6 48h454l-6 -48q-118 -14 -156 -46t-51 -117l-170 -1223h-125l-608 1243l-145 -1034q-13 -88 15 -119t147 -45l-7 -45h-456l6 45q115 14 154 46t51 118l141 1014q12 85 -18 117t-140 46l6 48h420zM1024 1720l254 185h57
l-307 -369h-61l-205 369h55z" />
    <glyph glyph-name="ncaron" unicode="&#x148;" horiz-adv-x="1265" 
d="M967 1044q219 0 178 -307l-72 -528q-14 -113 49 -113q82 0 168 195l47 -23q-100 -289 -313 -288q-184 0 -156 229l70 522q12 86 -4 128t-72 42q-80 0 -194 -148t-138 -313l-61 -440h-205l111 813q14 113 -47 113q-84 0 -168 -195l-47 23q102 291 313 290q184 0 154 -229
l-15 -113h4q83 150 187 246t211 96zM885 1311l256 184h57l-307 -369h-62l-204 369h55z" />
    <glyph glyph-name="napostrophe" unicode="&#x149;" horiz-adv-x="1265" 
d="M558 1729q50 0 84 -22q34 -21 45 -53q25 -73 13 -136q-20 -134 -116 -238t-201 -139l-21 47q133 57 189 168q43 82 0 108q-12 6 -29 6q-53 0 -85 38q-31 38 -23 92t51 91q43 38 93 38zM967 1044q219 0 178 -307l-72 -528q-14 -113 49 -113q82 0 168 195l47 -23
q-100 -289 -313 -288q-184 0 -156 229l70 522q12 86 -4 128t-72 42q-80 0 -194 -148t-138 -313l-61 -440h-205l111 813q14 113 -47 113q-84 0 -168 -195l-47 23q102 291 313 290q184 0 154 -229l-15 -113h4q83 150 187 246t211 96z" />
    <glyph glyph-name="Eng" unicode="&#x14a;" horiz-adv-x="1495" 
d="M758 -553q-74 0 -108 42t9 99t117 27q98 -33 164 -29t110 54q79 89 99 237l12 80l-639 1286l-145 -1034q-13 -88 15 -119t147 -45l-7 -45h-456l6 45q115 14 154 46t51 118l141 1014q12 85 -18 117t-140 46l6 48h420l521 -1082l120 871q13 89 -15 119t-144 44l6 48h454
l-6 -48q-118 -14 -156 -46t-51 -117l-170 -1223q-37 -264 -170 -408t-327 -145z" />
    <glyph glyph-name="eng" unicode="&#x14b;" horiz-adv-x="1187" 
d="M823 901q-81 0 -195 -148t-136 -313l-62 -440h-205l111 813q14 113 -47 113q-84 0 -168 -195l-47 23q102 291 313 290q184 0 154 -229l-15 -113h4q84 150 188 246t210 96q219 0 178 -307l-90 -645q-35 -254 -186 -450t-271 -195q-96 0 -104 72q-6 59 41 92q32 23 72 9
t77 -17q75 -4 105 52t37 178q8 122 24 259l88 639q12 86 -4 128t-72 42z" />
    <glyph glyph-name="Omacron" unicode="&#x14c;" horiz-adv-x="1597" 
d="M990 1374q-210 0 -372 -183t-201 -474t69 -475t318 -184t373 184t203 475q39 291 -70 474q-110 183 -320 183zM1002 1454q292 0 469 -210t133 -527t-280 -527q-238 -210 -530 -210t-469 210t-132 527q43 317 279 527q238 210 530 210zM729 1714h645l-10 -82h-645z" />
    <glyph glyph-name="omacron" unicode="&#x14d;" horiz-adv-x="1146" 
d="M580 51q236 0 301 461q66 461 -172 461q-233 0 -299 -461t170 -461zM184 512q34 229 182 381q148 151 360 151t313 -152t67 -380q-39 -229 -187 -381q-149 -151 -361 -151t-312 152t-62 380zM506 1305h645l-12 -82h-645z" />
    <glyph glyph-name="Obreve" unicode="&#x14e;" horiz-adv-x="1597" 
d="M990 1374q-210 0 -372 -183t-201 -474t69 -475t318 -184t373 184t203 475q39 291 -70 474q-110 183 -320 183zM1002 1454q292 0 469 -210t133 -527t-280 -527q-238 -210 -530 -210t-469 210t-132 527q43 317 279 527q238 210 530 210zM1049 1577q-129 0 -183 92
q-53 92 -37 217h54q6 -76 59 -118t127 -42q73 0 139 42t92 118h52q-16 -125 -95 -217t-208 -92z" />
    <glyph glyph-name="obreve" unicode="&#x14f;" horiz-adv-x="1146" 
d="M580 51q236 0 301 461q66 461 -172 461q-233 0 -299 -461t170 -461zM184 512q34 229 182 381q148 151 360 151t313 -152t67 -380q-39 -229 -187 -381q-149 -151 -361 -151t-312 152t-62 380zM791 1167q-129 1 -183 93t-37 217h54q6 -76 59 -118t127 -42q73 0 139 42
t92 118h52q-16 -125 -95 -217t-208 -93z" />
    <glyph glyph-name="Ohungarumlaut" unicode="&#x150;" horiz-adv-x="1597" 
d="M990 1374q-210 0 -372 -183t-201 -474t69 -475t318 -184t373 184t203 475q39 291 -70 474q-110 183 -320 183zM1002 1454q292 0 469 -210t133 -527t-280 -527q-238 -210 -530 -210t-469 210t-132 527q43 317 279 527q238 210 530 210zM1174 1536l-33 14l139 357
q14 37 58 57t91 -22q47 -43 -8 -109zM846 1536l-33 14l139 357q14 37 58 57t92 -22q48 -43 -8 -109z" />
    <glyph glyph-name="ohungarumlaut" unicode="&#x151;" horiz-adv-x="1146" 
d="M580 51q236 0 301 461q66 461 -172 461q-233 0 -299 -461t170 -461zM184 512q34 229 182 381q148 151 360 151t313 -152t67 -380q-39 -229 -187 -381q-149 -151 -361 -151t-312 152t-62 380zM903 1141l139 356q14 37 58 57t92 -22q47 -43 -8 -109l-248 -297zM575 1141
l140 356q14 37 58 57t91 -22q47 -43 -8 -109l-248 -297z" />
    <glyph glyph-name="OE" unicode="&#x152;" horiz-adv-x="1986" 
d="M991 1374q-211 0 -373 -183t-201 -474t69 -475t322 -184t247 243l116 825q31 250 -180 248zM1499 760q102 0 162 45q59 45 88 162h55l-69 -492h-56q2 117 -45 162t-147 45h-174l-84 -606h368q109 0 189 66t112 190h56l-66 -332h-884q-76 -20 -209 -20q-293 0 -470 210
t-133 526q44 318 280 528q237 210 529 210q135 0 203 -20h864l-36 -334h-56q2 124 -54 190t-165 66h-348l-84 -596h174z" />
    <glyph glyph-name="oe" unicode="&#x153;" horiz-adv-x="1767" 
d="M1204 857q-88 -116 -110 -316q252 -41 387 104q89 95 75 201q-17 126 -140 127q-124 0 -212 -116zM580 51q236 0 301 461q66 461 -172 461q-233 0 -299 -461t170 -461zM1434 1044q199 0 284 -129q76 -113 11 -237q-84 -158 -334 -201q-137 -25 -305 -6q0 -160 72 -247
t177 -87q209 0 316 164h47q-53 -135 -168 -228t-277 -93q-223 0 -321 190q-142 -190 -366 -190t-324 152t-62 380q34 229 182 381q148 151 368 151t310 -188q161 188 390 188z" />
    <glyph glyph-name="Racute" unicode="&#x154;" horiz-adv-x="1372" 
d="M692 707q195 0 284 86t109 232t-36 239q-57 92 -224 92h-184l-92 -649h143zM887 1434q225 0 334 -104t84 -279q-47 -313 -400 -398l242 -422q37 -65 89 -115t105 -71l-6 -45h-297q-68 53 -137 195l-223 434h-139l-60 -420q-12 -86 15 -118t131 -46l-7 -45h-542l6 45
q108 14 144 46t48 118l142 1014q12 85 -16 117t-130 46l6 48h611zM805 1559l239 305q29 35 76 41t76 -49t-47 -107l-320 -213z" />
    <glyph glyph-name="racute" unicode="&#x155;" horiz-adv-x="974" 
d="M328 926q-84 0 -168 -195l-47 23q102 291 313 290q186 0 156 -229l-15 -104h4q139 334 324 333q79 0 103 -55t-10 -108t-95 -47q-158 16 -247 -94t-116 -300l-61 -440h-205l111 813q16 113 -47 113zM672 1149l239 305q29 35 76 41t75 -49t-48 -107l-318 -213z" />
    <glyph glyph-name="Rcommaaccent" unicode="&#x156;" horiz-adv-x="1372" 
d="M692 707q195 0 284 86t109 232t-36 239q-57 92 -224 92h-184l-92 -649h143zM887 1434q225 0 334 -104t84 -279q-47 -313 -400 -398l242 -422q37 -65 89 -115t105 -71l-6 -45h-297q-68 53 -137 195l-223 434h-139l-60 -420q-12 -86 15 -118t131 -46l-7 -45h-542l6 45
q108 14 144 46t48 118l142 1014q12 85 -16 117t-130 46l6 48h611zM695 -82q50 0 84 -22t45 -53q26 -75 14 -136q-20 -133 -116 -237t-202 -140l-20 47q133 57 188 168q43 82 0 109l-29 6q-53 0 -85 38t-24 91t52 91q43 38 93 38z" />
    <glyph glyph-name="rcommaaccent" unicode="&#x157;" horiz-adv-x="974" 
d="M329 -94q50 0 84 -22t45 -54q25 -73 13 -135q-21 -133 -117 -237t-200 -140l-21 47q133 57 189 168q43 82 0 109l-29 6q-53 0 -85 38t-24 91t52 91t93 38zM328 926q-84 0 -168 -195l-47 23q102 291 313 290q186 0 156 -229l-15 -104h4q139 334 324 333q79 0 103 -55
t-10 -108t-95 -47q-158 16 -247 -94t-116 -300l-61 -440h-205l111 813q16 113 -47 113z" />
    <glyph glyph-name="Rcaron" unicode="&#x158;" horiz-adv-x="1372" 
d="M692 707q195 0 284 86t109 232t-36 239q-57 92 -224 92h-184l-92 -649h143zM887 1434q225 0 334 -104t84 -279q-47 -313 -400 -398l242 -422q37 -65 89 -115t105 -71l-6 -45h-297q-68 53 -137 195l-223 434h-139l-60 -420q-12 -86 15 -118t131 -46l-7 -45h-542l6 45
q108 14 144 46t48 118l142 1014q12 85 -16 117t-130 46l6 48h611zM887 1720l254 185h57l-307 -369h-62l-204 369h55z" />
    <glyph glyph-name="rcaron" unicode="&#x159;" horiz-adv-x="974" 
d="M328 926q-84 0 -168 -195l-47 23q102 291 313 290q186 0 156 -229l-15 -104h4q139 334 324 333q79 0 103 -55t-10 -108t-95 -47q-158 16 -247 -94t-116 -300l-61 -440h-205l111 813q16 113 -47 113zM696 1311l256 184h58l-308 -369h-61l-205 369h56z" />
    <glyph glyph-name="Sacute" unicode="&#x15a;" horiz-adv-x="1095" 
d="M530 61q127 0 209 74q83 74 99 195q16 120 -57 192t-225 140t-236 166q-84 97 -62 256q22 158 158 264q137 106 346 106t364 -92l-28 -344h-56q-8 354 -280 354q-115 0 -190 -56t-90 -166q-16 -110 46 -179q62 -70 181 -121q389 -166 350 -451q-27 -193 -174 -307
t-367 -112q-220 0 -395 102l31 362h55q-16 -383 321 -383zM727 1559l240 305q29 37 75 42t76 -50q29 -55 -47 -107l-319 -213z" />
    <glyph glyph-name="sacute" unicode="&#x15b;" horiz-adv-x="983" 
d="M473 51q82 0 140 49q57 49 69 127t-38 123t-174 99t-185 123t-45 192t125 202q109 78 275 78t255 -76q90 -76 76 -180q-8 -46 -44 -74t-85 -28t-73 22t-17 54q53 211 -117 211q-86 0 -141 -40q-56 -39 -64 -97q-15 -103 49 -146q49 -34 166 -80t191 -120t56 -206
q-18 -134 -141 -219q-122 -85 -286 -85t-254 76t-74 180q6 46 42 74t85 28t73 -22t17 -54q-45 -211 119 -211zM578 1149l239 305q29 35 76 41t75 -49t-48 -107l-318 -213z" />
    <glyph glyph-name="Scircumflex" unicode="&#x15c;" horiz-adv-x="1095" 
d="M530 61q127 0 209 74q83 74 99 195q16 120 -57 192t-225 140t-236 166q-84 97 -62 256q22 158 158 264q137 106 346 106t364 -92l-28 -344h-56q-8 354 -280 354q-115 0 -190 -56t-90 -166q-16 -110 46 -179q62 -70 181 -121q389 -166 350 -451q-27 -193 -174 -307
t-367 -112q-220 0 -395 102l31 362h55q-16 -383 321 -383zM799 1720l-258 -184h-56l308 369h61l205 -369h-58z" />
    <glyph glyph-name="scircumflex" unicode="&#x15d;" horiz-adv-x="983" 
d="M473 51q82 0 140 49q57 49 69 127t-38 123t-174 99t-185 123t-45 192t125 202q109 78 275 78t255 -76q90 -76 76 -180q-8 -46 -44 -74t-85 -28t-73 22t-17 54q53 211 -117 211q-86 0 -141 -40q-56 -39 -64 -97q-15 -103 49 -146q49 -34 166 -80t191 -120t56 -206
q-18 -134 -141 -219q-122 -85 -286 -85t-254 76t-74 180q6 46 42 74t85 28t73 -22t17 -54q-45 -211 119 -211zM666 1311l-256 -185h-56l308 369h61l205 -369h-58z" />
    <glyph glyph-name="Scedilla" unicode="&#x15e;" horiz-adv-x="1095" 
d="M762 1372q-115 0 -190 -56t-90 -166t46 -179q61 -70 181 -121q389 -166 350 -451q-27 -188 -167 -301t-343 -116l-8 -64q-5 -23 27 -36t71 -20t67 -41t19 -95q-14 -90 -130 -155t-245 -83l-10 61q2 1 44 13q130 39 161 85q16 25 20 57t-12 54t-39 31q-23 10 -38 37t-7 72
l16 84q-209 10 -362 100l31 362h55q-16 -383 321 -383q127 0 209 74q83 74 99 195q16 120 -57 192t-225 140t-236 166q-84 97 -62 256q22 158 158 264q137 106 346 106t364 -92l-28 -344h-56q-8 354 -280 354z" />
    <glyph glyph-name="scedilla" unicode="&#x15f;" horiz-adv-x="983" 
d="M473 51q82 0 140 49q57 49 69 127t-38 123t-174 99t-185 123t-45 192t125 202q109 78 275 78t255 -76q90 -76 76 -180q-8 -46 -44 -74t-85 -28t-73 22t-17 54q53 211 -117 211q-86 0 -141 -40q-56 -39 -64 -97q-15 -103 49 -146q49 -34 166 -80t191 -120t56 -202
q-18 -130 -131 -214q-112 -84 -261 -92l-8 -64q-4 -23 28 -36t70 -20t66 -41t20 -95q-14 -90 -130 -155t-245 -83l-10 61q2 1 44 13q127 38 161 85q16 23 20 55t-13 54t-40 33q-58 25 -43 109l18 84q-154 8 -236 82t-65 172q6 46 42 74t85 28t73 -22t17 -54
q-45 -211 119 -211z" />
    <glyph glyph-name="Scaron" unicode="&#x160;" horiz-adv-x="1095" 
d="M530 61q127 0 209 74q83 74 99 195q16 120 -57 192t-225 140t-236 166q-84 97 -62 256q22 158 158 264q137 106 346 106t364 -92l-28 -344h-56q-8 354 -280 354q-115 0 -190 -56t-90 -166q-16 -110 46 -179q62 -70 181 -121q389 -166 350 -451q-27 -193 -174 -307
t-367 -112q-220 0 -395 102l31 362h55q-16 -383 321 -383zM809 1720l254 185h57l-307 -369h-61l-205 369h55z" />
    <glyph glyph-name="scaron" unicode="&#x161;" horiz-adv-x="983" 
d="M473 51q82 0 140 49q57 49 69 127t-38 123t-174 99t-185 123t-45 192t125 202q109 78 275 78t255 -76q90 -76 76 -180q-8 -46 -44 -74t-85 -28t-73 22t-17 54q53 211 -117 211q-86 0 -141 -40q-56 -39 -64 -97q-15 -103 49 -146q49 -34 166 -80t191 -120t56 -206
q-18 -134 -141 -219q-122 -85 -286 -85t-254 76t-74 180q6 46 42 74t85 28t73 -22t17 -54q-45 -211 119 -211zM651 1311l256 184h58l-308 -369h-61l-205 369h55z" />
    <glyph glyph-name="Tcommaaccent" unicode="&#x162;" horiz-adv-x="1228" 
d="M1051 1356h-144l-162 -1147q-12 -86 15 -118t131 -46l-6 -45h-543l6 45q109 14 145 46t48 118l161 1147h-143q-109 0 -185 -67t-108 -189h-57l57 334h1096l-37 -334h-55q2 124 -54 190t-165 66zM574 -94q50 0 84 -22t45 -54q26 -75 14 -135q-21 -133 -117 -237t-201 -140
l-20 47q133 57 188 168q43 82 0 109l-28 6q-53 0 -85 38t-24 91t51 91t93 38z" />
    <glyph glyph-name="tcommaaccent" unicode="&#x163;" horiz-adv-x="718" 
d="M333 -94q50 0 84 -22t45 -54q25 -73 13 -135q-21 -133 -117 -237t-200 -140l-21 47q133 57 189 168q43 82 0 109l-29 6q-53 0 -85 38t-24 91t52 91t93 38zM467 96q35 0 80 45t90 150l49 -23q-104 -289 -319 -288q-188 0 -156 229l104 733h-129l11 72l133 30l194 287h51
l-43 -307h250l-12 -82h-250l-104 -733q-16 -113 51 -113z" />
    <glyph glyph-name="Tcaron" unicode="&#x164;" horiz-adv-x="1228" 
d="M1051 1356h-144l-162 -1147q-12 -86 15 -118t131 -46l-6 -45h-543l6 45q109 14 145 46t48 118l161 1147h-143q-109 0 -185 -67t-108 -189h-57l57 334h1096l-37 -334h-55q2 124 -54 190t-165 66zM854 1720l254 185h57l-307 -369h-61l-205 369h55z" />
    <glyph glyph-name="tcaron" unicode="&#x165;" horiz-adv-x="776" 
d="M871 1708q50 0 84 -22t45 -53q26 -75 14 -136q-20 -133 -116 -237t-202 -140l-20 47q133 57 188 168q43 82 0 109q-12 6 -28 6q-53 0 -85 38t-24 91t51 91t93 38zM465 96q35 0 80 45t90 150l49 -23q-104 -289 -319 -288q-188 0 -156 229l104 733h-129l11 72l133 30
l194 287h51l-43 -307h250l-12 -82h-250l-104 -733q-16 -113 51 -113z" />
    <glyph glyph-name="Tbar" unicode="&#x166;" horiz-adv-x="1228" 
d="M559 1356q-109 0 -185 -67t-108 -189h-57l57 334h1096l-37 -334h-55q2 124 -54 190t-165 66h-144l-84 -596h230l-13 -78h-229l-66 -473q-12 -86 15 -118t131 -46l-6 -45h-543l6 45q109 14 145 46t48 118l65 473h-231l12 78h231l84 596h-143z" />
    <glyph glyph-name="tbar" unicode="&#x167;" horiz-adv-x="718" 
d="M467 96q35 0 80 45t90 150l49 -23q-104 -289 -319 -288q-188 0 -156 229l57 401h-127l11 78h127l36 254h-129l11 72l133 30l194 287h51l-43 -307h250l-12 -82h-250l-37 -254h191l-10 -78h-191l-57 -401q-16 -113 51 -113z" />
    <glyph glyph-name="Utilde" unicode="&#x168;" horiz-adv-x="1556" 
d="M1305 573l90 650q12 85 -17 117t-145 46l6 48h461l-6 -48q-119 -14 -158 -46t-51 -117l-94 -670q-39 -272 -206 -423q-167 -150 -430 -150t-377 150t-77 423l94 670q13 85 -15 117t-130 46l6 48h543l-6 -48q-109 -14 -145 -46t-48 -117l-90 -650q-72 -502 311 -501
q205 0 327 130t157 371zM938 1833q41 0 160 -41q118 -41 166 -41t82 15t73 61l37 -25q-137 -215 -235 -215q-49 0 -164 41t-164 41q-49 1 -83 -21t-83 -77l-37 26q147 236 248 236z" />
    <glyph glyph-name="utilde" unicode="&#x169;" horiz-adv-x="1265" 
d="M483 -20q-219 0 -178 307l72 528q14 113 -49 113q-82 0 -168 -195l-47 23q100 289 313 288q184 0 156 -229l-70 -522q-12 -86 4 -128t72 -42q80 0 194 148t138 313l61 440h205l-111 -813q-14 -113 47 -113q84 0 168 195l47 -23q-102 -291 -313 -290q-184 0 -154 229
l15 113h-4q-83 -150 -187 -246t-211 -96zM989 1341q47 -1 81 15t75 61l37 -24q-39 -59 -67 -97t-77 -78t-94 -40t-160 41q-114 41 -164 41t-84 -22t-83 -77l-37 27q147 236 248 235q42 0 160 -41t165 -41z" />
    <glyph glyph-name="Umacron" unicode="&#x16a;" horiz-adv-x="1556" 
d="M1305 573l90 650q12 85 -17 117t-145 46l6 48h461l-6 -48q-119 -14 -158 -46t-51 -117l-94 -670q-39 -272 -206 -423q-167 -150 -430 -150t-377 150t-77 423l94 670q13 85 -15 117t-130 46l6 48h543l-6 -48q-109 -14 -145 -46t-48 -117l-90 -650q-72 -502 311 -501
q205 0 327 130t157 371zM733 1714h645l-10 -82h-645z" />
    <glyph glyph-name="umacron" unicode="&#x16b;" horiz-adv-x="1265" 
d="M483 -20q-219 0 -178 307l72 528q14 113 -49 113q-82 0 -168 -195l-47 23q100 289 313 288q184 0 156 -229l-70 -522q-12 -86 4 -128t72 -42q80 0 194 148t138 313l61 440h205l-111 -813q-14 -113 47 -113q84 0 168 195l47 -23q-102 -291 -313 -290q-184 0 -154 229
l15 113h-4q-83 -150 -187 -246t-211 -96zM502 1305h645l-12 -82h-646z" />
    <glyph glyph-name="Ubreve" unicode="&#x16c;" horiz-adv-x="1556" 
d="M1305 573l90 650q12 85 -17 117t-145 46l6 48h461l-6 -48q-119 -14 -158 -46t-51 -117l-94 -670q-39 -272 -206 -423q-167 -150 -430 -150t-377 150t-77 423l94 670q13 85 -15 117t-130 46l6 48h543l-6 -48q-109 -14 -145 -46t-48 -117l-90 -650q-72 -502 311 -501
q205 0 327 130t157 371zM1012 1577q-129 0 -183 92q-53 92 -36 217h53q6 -76 59 -118t127 -42t140 42t92 118h51q-16 -125 -95 -217t-208 -92z" />
    <glyph glyph-name="ubreve" unicode="&#x16d;" horiz-adv-x="1265" 
d="M483 -20q-219 0 -178 307l72 528q14 113 -49 113q-82 0 -168 -195l-47 23q100 289 313 288q184 0 156 -229l-70 -522q-12 -86 4 -128t72 -42q80 0 194 148t138 313l61 440h205l-111 -813q-14 -113 47 -113q84 0 168 195l47 -23q-102 -291 -313 -290q-184 0 -154 229
l15 113h-4q-83 -150 -187 -246t-211 -96zM793 1167q-129 1 -183 93t-37 217h54q6 -76 59 -118t127 -42q73 0 139 42t92 118h52q-16 -125 -95 -217t-208 -93z" />
    <glyph glyph-name="Uring" unicode="&#x16e;" horiz-adv-x="1556" 
d="M1305 573l90 650q12 85 -17 117t-145 46l6 48h461l-6 -48q-119 -14 -158 -46t-51 -117l-94 -670q-39 -272 -206 -423q-167 -150 -430 -150t-377 150t-77 423l94 670q13 85 -15 117t-130 46l6 48h543l-6 -48q-109 -14 -145 -46t-48 -117l-90 -650q-72 -502 311 -501
q205 0 327 130t157 371zM1047 1597q49 0 88 34t45 83q8 49 -22 83t-79 34t-87 -34t-45 -83t22 -83t78 -34zM1088 1898q78 0 124 -53t35 -131q-10 -78 -71 -131q-62 -53 -140 -53t-123 53q-44 53 -34 131t71 131q60 53 138 53z" />
    <glyph glyph-name="uring" unicode="&#x16f;" horiz-adv-x="1265" 
d="M483 -20q-219 0 -178 307l72 528q14 113 -49 113q-82 0 -168 -195l-47 23q100 289 313 288q184 0 156 -229l-70 -522q-12 -86 4 -128t72 -42q80 0 194 148t138 313l61 440h205l-111 -813q-14 -113 47 -113q84 0 168 195l47 -23q-102 -291 -313 -290q-184 0 -154 229
l15 113h-4q-83 -150 -187 -246t-211 -96zM799 1188q49 0 88 34t45 83q8 49 -22 83t-79 34t-87 -34t-45 -83t22 -83t78 -34zM840 1489q78 0 124 -53t36 -131t-72 -131q-62 -54 -140 -54t-122 54t-35 131q10 78 71 131q60 53 138 53z" />
    <glyph glyph-name="Uhungarumlaut" unicode="&#x170;" horiz-adv-x="1556" 
d="M1305 573l90 650q12 85 -17 117t-145 46l6 48h461l-6 -48q-119 -14 -158 -46t-51 -117l-94 -670q-39 -272 -206 -423q-167 -150 -430 -150t-377 150t-77 423l94 670q13 85 -15 117t-130 46l6 48h543l-6 -48q-109 -14 -145 -46t-48 -117l-90 -650q-72 -502 311 -501
q205 0 327 130t157 371zM1182 1536l-33 14l139 357q14 37 58 57t92 -22q48 -43 -8 -109zM854 1536l-33 14l140 357q14 37 58 57t91 -22q47 -43 -8 -109z" />
    <glyph glyph-name="uhungarumlaut" unicode="&#x171;" horiz-adv-x="1265" 
d="M483 -20q-219 0 -178 307l72 528q14 113 -49 113q-82 0 -168 -195l-47 23q100 289 313 288q184 0 156 -229l-70 -522q-12 -86 4 -128t72 -42q80 0 194 148t138 313l61 440h205l-111 -813q-14 -113 47 -113q84 0 168 195l47 -23q-102 -291 -313 -290q-184 0 -154 229
l15 113h-4q-83 -150 -187 -246t-211 -96zM879 1141l139 356q14 37 58 57t91 -22q47 -43 -8 -109l-248 -297zM551 1141l139 356q14 37 58 57t92 -22q48 -43 -9 -109l-247 -297z" />
    <glyph glyph-name="Uogonek" unicode="&#x172;" horiz-adv-x="1556" 
d="M695 -465q-99 0 -138 70t8 176t176 199q-261 6 -369 156t-71 417l94 670q13 85 -15 117t-130 46l6 48h543l-6 -48q-109 -14 -145 -46t-48 -117l-90 -650q-72 -502 311 -501q205 0 327 130t157 371l90 650q12 85 -17 117t-145 46l6 48h461l-6 -48q-119 -14 -158 -46
t-51 -117l-94 -670q-37 -261 -191 -409t-391 -162q-113 -104 -126 -217t71 -127q49 -9 123 20l-7 -41q-76 -82 -175 -82z" />
    <glyph glyph-name="uogonek" unicode="&#x173;" horiz-adv-x="1265" 
d="M939 -465q-99 0 -138 70q-39 69 8 177t180 200q-147 20 -119 227l15 113h-4q-83 -150 -187 -246t-211 -96q-219 0 -178 307l72 528q14 113 -49 113q-82 0 -168 -195l-47 23q100 289 313 288q184 0 156 -229l-70 -522q-12 -86 4 -128t72 -42q80 0 194 148t138 313l61 440
h205l-111 -813q-14 -113 47 -113q84 0 168 195l47 -23q-92 -266 -282 -288q-113 -104 -127 -217t69 -127q49 -9 123 20l-6 -41q-76 -82 -175 -82z" />
    <glyph glyph-name="Wcircumflex" unicode="&#x174;" horiz-adv-x="2068" 
d="M1112 1264q-10 52 -38 76t-111 46l6 48h547l-7 -48q-109 -14 -139 -56t-16 -128l141 -954h4l393 923q45 93 26 147t-132 68l6 48h461l-6 -48q-111 -16 -154 -38t-70 -84l-557 -1274h-137l-151 874l-455 -874h-119l-248 1274q-10 52 -37 76t-110 46l6 48h549l-6 -48
q-111 -14 -144 -57t-18 -127l176 -954h4l381 745zM1292 1720l-258 -184h-55l307 369h62l204 -369h-57z" />
    <glyph glyph-name="wcircumflex" unicode="&#x175;" horiz-adv-x="1767" 
d="M482 -20q-106 0 -153 72q-46 72 -24 235l72 526q14 113 -49 113q-84 0 -166 -195l-49 23q104 291 315 290q186 0 154 -231l-72 -522q-12 -84 4 -126t72 -42q82 0 196 147t138 314l61 440h205l-103 -733q-25 -178 148 -178q142 0 237 102q113 121 95 367q-10 139 -66 313
q-31 96 35 133t131 -6q45 -35 57 -96q46 -240 -28 -462t-229 -353t-339 -131q-131 0 -194 63t-51 205l6 71h-4q-85 -151 -189 -245t-210 -94zM1143 1311l-256 -185h-56l308 369h61l205 -369h-57z" />
    <glyph glyph-name="Ycircumflex" unicode="&#x176;" horiz-adv-x="1310" 
d="M334 1264q-18 46 -46 72t-83 50l6 48h502l-6 -48q-112 -16 -123 -60t18 -124l211 -563h4l344 553q102 168 -86 194l6 48h420l-6 -48q-82 -16 -124 -40t-79 -82l-424 -693l-51 -362q-11 -86 15 -118t131 -46l-7 -45h-542l6 45q108 14 144 46t48 118l39 272zM950 1720
l-258 -184h-55l307 369h62l204 -369h-57z" />
    <glyph glyph-name="ycircumflex" unicode="&#x177;" horiz-adv-x="1191" 
d="M659 113q141 0 238 102q113 122 94 367q-10 139 -65 313q-31 94 39 132t131 -7q45 -31 53 -94q45 -352 -80 -700t-355 -564q-230 -215 -481 -215q-98 0 -116 72q-17 59 21 87t79 15q193 -55 416 99t325 450l-2 2q-182 -193 -403 -192q-141 0 -205 71q-63 72 -41 236
l72 526q14 113 -49 113q-84 0 -166 -195l-49 23q104 291 315 290q187 0 154 -231l-72 -522q-25 -178 147 -178zM856 1311l-256 -185h-55l307 369h61l205 -369h-57z" />
    <glyph glyph-name="Ydieresis" unicode="&#x178;" horiz-adv-x="1310" 
d="M334 1264q-18 46 -46 72t-83 50l6 48h502l-6 -48q-112 -16 -123 -60t18 -124l211 -563h4l344 553q102 168 -86 194l6 48h420l-6 -48q-82 -16 -124 -40t-79 -82l-424 -693l-51 -362q-11 -86 15 -118t131 -46l-7 -45h-542l6 45q108 14 144 46t48 118l39 272zM1155 1784
q49 0 78 -33t21 -82t-46 -81q-37 -32 -86 -32t-78 32q-28 32 -20 82t45 82t86 32zM757 1784q48 0 77 -32q28 -32 20 -83t-45 -82t-86 -31t-77 32q-27 32 -19 82t45 82t85 32z" />
    <glyph glyph-name="Zacute" unicode="&#x179;" horiz-adv-x="1228" 
d="M840 76q112 0 190 66t111 190h55l-66 -332h-1054l6 55l983 1301h-440q-109 0 -185 -66t-108 -190h-58l58 334h999l-8 -62l-969 -1296h486zM809 1559l240 305q29 35 75 41t76 -49q29 -55 -47 -107l-319 -213z" />
    <glyph glyph-name="zacute" unicode="&#x17a;" horiz-adv-x="989" 
d="M827 91q0 48 -12 81q-20 66 37 90t93 -11q36 -36 36 -83q0 -90 -88 -152q-89 -62 -189 -61q-100 -1 -178 21q-102 28 -211 97q-110 69 -118 56q-2 -12 -2 -16q0 -3 9 -21q36 -71 -2 -106t-79 -24q-41 10 -48 64t52 145t239 265t474 406l-2 2q-80 -49 -157 -53
q-77 -5 -127 19q-159 74 -211 75q-52 0 -84 -30t-85 -124l-49 23q71 158 145 226t178 69q148 0 393 -84q65 -23 71 -12t-1 21q-6 10 -18 25q-12 16 -16 35q-20 68 32 88q47 20 80 -22q14 -20 19 -49q10 -102 -120 -240t-661 -606l2 -2q135 51 237 29t162 -72t107 -93
q47 -42 69 -33t23 57zM590 1149l239 305q29 35 76 41t75 -49t-48 -107l-318 -213z" />
    <glyph glyph-name="Zdotaccent" unicode="&#x17b;" horiz-adv-x="1228" 
d="M840 76q112 0 190 66t111 190h55l-66 -332h-1054l6 55l983 1301h-440q-109 0 -185 -66t-108 -190h-58l58 334h999l-8 -62l-969 -1296h486zM905 1817q51 0 82 -36t24 -87t-48 -87t-93 -36t-82 35t-23 87t48 88t92 36z" />
    <glyph glyph-name="zdotaccent" unicode="&#x17c;" horiz-adv-x="989" 
d="M827 91q0 48 -12 81q-20 66 37 90t93 -11q36 -36 36 -83q0 -90 -88 -152q-89 -62 -189 -61q-100 -1 -178 21q-102 28 -211 97q-110 69 -118 56q-2 -12 -2 -16q0 -3 9 -21q36 -71 -2 -106t-79 -24q-41 10 -48 64t52 145t239 265t474 406l-2 2q-80 -49 -157 -53
q-77 -5 -127 19q-159 74 -211 75q-52 0 -84 -30t-85 -124l-49 23q71 158 145 226t178 69q148 0 393 -84q65 -23 71 -12t-1 21q-6 10 -18 25q-12 16 -16 35q-20 68 32 88q47 20 80 -22q14 -20 19 -49q10 -102 -120 -240t-661 -606l2 -2q135 51 237 29t162 -72t107 -93
q47 -42 69 -33t23 57zM700 1407q51 0 82 -36t24 -87t-48 -87t-92 -36t-82 35t-24 87t48 88t92 36z" />
    <glyph glyph-name="Zcaron" unicode="&#x17d;" horiz-adv-x="1228" 
d="M840 76q112 0 190 66t111 190h55l-66 -332h-1054l6 55l983 1301h-440q-109 0 -185 -66t-108 -190h-58l58 334h999l-8 -62l-969 -1296h486zM881 1720l254 185h57l-307 -369h-62l-205 369h56z" />
    <glyph glyph-name="zcaron" unicode="&#x17e;" horiz-adv-x="995" 
d="M702 1311l256 184h58l-307 -369h-62l-205 369h56zM827 91q0 48 -12 81q-20 66 37 90t93 -11q36 -36 36 -83q0 -90 -88 -152q-89 -62 -189 -61q-100 -1 -178 21q-102 28 -211 97q-110 69 -118 56q-2 -12 -2 -16q0 -3 9 -21q36 -71 -2 -106t-79 -24q-41 10 -48 64t52 145
t239 265t474 406l-2 2q-80 -49 -157 -53q-77 -5 -127 19q-159 74 -211 75q-52 0 -84 -30t-85 -124l-49 23q71 158 145 226t178 69q148 0 393 -84q65 -23 71 -12t-1 21q-6 10 -18 25q-12 16 -16 35q-20 68 32 88q47 20 80 -22q14 -20 19 -49q10 -102 -120 -240t-661 -606
l2 -2q135 51 237 29t162 -72t107 -93q47 -42 69 -33t23 57z" />
    <glyph glyph-name="longs" unicode="&#x17f;" horiz-adv-x="634" 
d="M877 1577q92 0 98 -68q6 -57 -36 -88t-77 -18q-130 48 -202 7q-49 -28 -74 -163t-33 -223l-131 -932q-37 -254 -188 -450t-269 -195q-96 0 -104 72q-6 59 41 92q30 23 74 7t83 -18q69 -2 102 66q22 45 34 204q13 159 22 222l131 932q33 221 219 387t310 166z" />
    <glyph glyph-name="florin" unicode="&#x192;" horiz-adv-x="634" 
d="M172 942v72l133 10q20 114 90 222t156 178t168 111q82 42 133 42q92 0 96 -68q4 -57 -38 -88t-76 -18q-127 48 -181 15q-33 -20 -51 -34t-36 -77t-35 -163t-21 -120h250v-82h-264l-168 -942q-20 -111 -90 -217t-154 -178t-167 -115t-134 -43q-92 0 -96 68q-4 57 38 88
q43 31 89 15q113 -40 163 -14q31 15 56 44q41 46 90 352l170 942h-121z" />
    <glyph glyph-name="AEacute" unicode="&#x1fc;" horiz-adv-x="1802" 
d="M1065 1202l-303 -442h246l61 442h-4zM1573 1356h-277l-84 -596h103q102 0 162 45q59 45 88 162h55l-70 -492h-55q2 117 -45 162t-147 45h-103l-84 -606h297q109 0 189 66t112 190h55l-65 -332h-973l6 45q109 14 145 46t48 118l65 473h-286l-285 -422q-64 -98 -62 -136
t32 -54t87 -25l-6 -45h-461l6 45q111 16 159 39t91 84l875 1266h739l-37 -334h-55q2 124 -54 190t-165 66zM1225 1559l239 305q29 35 76 41t76 -49t-47 -107l-320 -213z" />
    <glyph glyph-name="aeacute" unicode="&#x1fd;" horiz-adv-x="1533" 
d="M1229 973q-121 0 -212 -121t-112 -320q242 14 359 175q80 109 53 198q-22 66 -88 68zM1081 -20q-248 0 -348 188q-252 -188 -440 -188q-92 0 -149 71q-56 72 -42 174q27 180 297 228l291 49l33 205q20 121 -23 183t-123 62q-146 0 -188 -83q-16 -33 -16 -67t18 -54
q43 -48 -32 -94t-130 -31q-23 8 -28 22q-14 49 18 117q76 156 267 238q103 44 212 44q172 0 222 -129q158 129 332 129t236 -110t-22 -229q-146 -212 -565 -240q0 -156 69 -242t193 -86q209 0 316 164h45q-53 -135 -168 -228t-275 -93zM406 115q143 0 305 108
q-33 90 -23 217l-246 -53q-135 -31 -135 -158q0 -55 28 -85t71 -29zM956 1149l240 305q29 37 76 42q46 5 74 -50t-48 -107l-317 -213z" />
    <glyph glyph-name="Oslashacute" unicode="&#x1fe;" horiz-adv-x="1597" 
d="M797 57q217 1 379 185t204 475q27 193 -24 358l-885 -809q109 -209 326 -209zM1002 1374q-222 0 -384 -183t-200 -474q-29 -205 22 -371l889 807q-105 221 -327 221zM993 1454q284 0 457 -188l137 125l47 -62l-135 -123q145 -205 107 -489q-45 -317 -282 -527t-516 -210
t-458 178l-141 -129l-49 63l141 127q-151 203 -108 509t279 516q237 210 521 210zM983 1559l240 305q29 35 75 41t76 -49q29 -55 -47 -107l-319 -213z" />
    <glyph glyph-name="oslashacute" unicode="&#x1ff;" horiz-adv-x="1146" 
d="M582 51q237 0 303 461q14 106 8 193l-481 -486q31 -168 170 -168zM713 973q-233 0 -299 -461q-16 -119 -11 -195l480 486q-35 170 -170 170zM1122 1044l49 -57l-114 -117q86 -145 50 -366t-184 -373q-148 -151 -345 -151t-295 108l-107 -108l-53 55l115 115
q-88 143 -50 362q34 229 182 381t361 151q174 0 281 -112zM723 1149l240 305q29 35 75 41t75 -49q28 -55 -48 -107l-317 -213z" />
    <glyph glyph-name="Scommaaccent" unicode="&#x218;" horiz-adv-x="1095" 
d="M530 61q127 0 209 74q83 74 99 195q16 120 -57 192t-225 140t-236 166q-84 97 -62 256q22 158 158 264q137 106 346 106t364 -92l-28 -344h-56q-8 354 -280 354q-115 0 -190 -56t-90 -166q-16 -110 46 -179q62 -70 181 -121q389 -166 350 -451q-27 -193 -174 -307
t-367 -112q-220 0 -395 102l31 362h55q-16 -383 321 -383zM509 -94q50 0 84 -22t45 -54q25 -73 13 -135q-20 -133 -116 -237t-201 -140l-21 47q133 57 189 168q43 82 0 109l-29 6q-53 0 -85 38t-24 91t52 91q43 38 93 38z" />
    <glyph glyph-name="scommaaccent" unicode="&#x219;" horiz-adv-x="983" 
d="M439 -94q50 0 84 -22t45 -54q26 -75 14 -135q-20 -133 -116 -237t-202 -140l-20 47q133 57 188 168q43 82 0 109l-29 6q-53 0 -85 38t-24 91t52 91q43 38 93 38zM473 51q82 0 140 49q57 49 69 127t-38 123t-174 99t-185 123t-45 192t125 202q109 78 275 78t255 -76
q90 -76 76 -180q-8 -46 -44 -74t-85 -28t-73 22t-17 54q53 211 -117 211q-86 0 -141 -40q-56 -39 -64 -97q-15 -103 49 -146q49 -34 166 -80t191 -120t56 -206q-18 -134 -141 -219q-122 -85 -286 -85t-254 76t-74 180q6 46 42 74t85 28t73 -22t17 -54q-45 -211 119 -211z
" />
    <glyph glyph-name="uni021A" unicode="&#x21a;" horiz-adv-x="1228" 
d="M1051 1356h-144l-162 -1147q-12 -86 15 -118t131 -46l-6 -45h-543l6 45q109 14 145 46t48 118l161 1147h-143q-109 0 -185 -67t-108 -189h-57l57 334h1096l-37 -334h-55q2 124 -54 190t-165 66zM577 -88q128 0 144 -143q4 -37 -2 -68q-21 -133 -117 -237t-201 -140
l-20 47q133 57 188 168q43 82 0 109l-28 6q-53 0 -85 38t-24 91t51 91q44 38 94 38z" />
    <glyph glyph-name="uni021B" unicode="&#x21b;" horiz-adv-x="718" 
d="M333 -98q50 0 84 -22t45 -54q25 -73 13 -135q-21 -133 -117 -237t-200 -140l-21 47q133 57 189 168q43 82 0 109l-29 6q-53 0 -85 38t-24 91t52 91t93 38zM467 96q35 0 80 45t90 150l49 -23q-104 -289 -319 -288q-188 0 -156 229l104 733h-129l11 72l133 30l194 287h51
l-43 -307h250l-12 -82h-250l-104 -733q-16 -113 51 -113z" />
    <glyph glyph-name="circumflex" unicode="&#x2c6;" horiz-adv-x="962" 
d="M664 1311l-256 -185h-56l307 369h62l205 -369h-58z" />
    <glyph glyph-name="caron" unicode="&#x2c7;" horiz-adv-x="962" 
d="M664 1311l256 184h57l-307 -369h-62l-205 369h56z" />
    <glyph glyph-name="uni02C9" unicode="&#x2c9;" horiz-adv-x="1044" 
d="M381 1305h645l-12 -82h-645z" />
    <glyph glyph-name="breve" unicode="&#x2d8;" horiz-adv-x="921" 
d="M625 1167q-129 1 -183 93t-36 217h53q6 -76 59 -118t127 -42q73 0 139 42t93 118h51q-16 -125 -95 -217t-208 -93z" />
    <glyph glyph-name="dotaccent" unicode="&#x2d9;" horiz-adv-x="643" 
d="M518 1407q51 0 82 -36t24 -87q-6 -51 -48 -87t-93 -36t-82 35q-30 35 -23 87t48 88t92 36z" />
    <glyph glyph-name="ring" unicode="&#x2da;" horiz-adv-x="768" 
d="M549 1188q49 0 88 34t45 83q8 49 -22 83t-78 34t-87 -34q-38 -34 -45 -83q-6 -49 22 -83t77 -34zM591 1489q77 0 123 -53t36 -131t-72 -131q-62 -54 -139 -54q-78 0 -123 54t-35 131q9 78 71 131t139 53z" />
    <glyph glyph-name="ogonek" unicode="&#x2db;" horiz-adv-x="737" 
d="M298 -465q-108 0 -138 92q-37 111 73 244q57 70 150 129h61q-122 -100 -146 -218t54 -142q51 -15 135 18l-6 -41q-75 -82 -183 -82z" />
    <glyph glyph-name="tilde" unicode="&#x2dc;" horiz-adv-x="1126" 
d="M934 1341q47 -1 81 15t75 61l36 -24q-38 -59 -66 -97t-77 -78t-94 -40t-160 41t-165 41t-84 -22t-83 -77l-37 27q147 236 248 235q41 0 160 -41t166 -41z" />
    <glyph glyph-name="hungarumlaut" unicode="&#x2dd;" horiz-adv-x="983" 
d="M686 1141l139 356q14 37 58 57q43 20 91 -22q48 -43 -7 -109l-248 -297zM358 1141l140 356q14 37 58 57t91 -22q47 -43 -8 -109l-248 -297z" />
    <glyph glyph-name="uni037E" unicode="&#x37e;" horiz-adv-x="731" 
d="M229 475q12 84 79 143q67 60 151 60t135 -60t39 -143q-12 -84 -80 -142q-68 -59 -152 -59t-134 58t-38 143z" />
    <glyph glyph-name="tonos" unicode="&#x384;" horiz-adv-x="655" 
d="M344 1049l141 356q14 37 47 53q54 25 102 -18t-7 -109l-250 -297z" />
    <glyph glyph-name="dieresistonos" unicode="&#x385;" horiz-adv-x="1187" 
d="M743 1229l-32 14l139 356q14 37 47 54q55 25 102 -19t-8 -108zM1067 1374q49 0 78 -33t21 -81t-46 -81q-37 -32 -86 -32t-78 32q-28 32 -20 82q8 49 45 81t86 32zM505 1374q48 0 77 -32q28 -32 20 -82t-45 -82q-37 -31 -86 -31t-77 32q-27 32 -19 82q8 49 45 81t85 32z
" />
    <glyph glyph-name="anoteleia" unicode="&#x387;" horiz-adv-x="856" 
d="M741 879q47 0 74 -31t20 -79t-42 -78q-35 -29 -82 -29t-74 30t-20 77q7 48 42 79t82 31zM360 879q46 0 74 -31q27 -31 20 -79t-42 -78q-35 -29 -82 -29t-74 29q-26 30 -19 78t42 79t81 31z" />
    <glyph glyph-name="Delta" unicode="&#x394;" horiz-adv-x="1445" 
d="M1124 61l-262 1117l-626 -1117h888zM1323 0h-1200l829 1454z" />
    <glyph glyph-name="Delta" unicode="&#x2206;" horiz-adv-x="1445" 
d="M1124 61l-262 1117l-626 -1117h888zM1323 0h-1200l829 1454z" />
    <glyph glyph-name="Omega" unicode="&#x3a9;" horiz-adv-x="1638" 
d="M1011 1374q-210 0 -345 -140t-170 -394q-59 -422 256 -510l-45 -330h-574l25 332h55q-2 -117 54 -153t186 -36h200l17 115q-213 49 -322 202t-78 380q39 274 250 444t502 170t455 -170t125 -444q-31 -227 -184 -380t-380 -202l-16 -115h199q129 0 195 36t97 153h58
l-66 -332h-573l45 330q340 90 399 510q35 254 -60 394t-305 140z" />
    <glyph glyph-name="Omega" unicode="&#x2126;" horiz-adv-x="1638" 
d="M1011 1374q-210 0 -345 -140t-170 -394q-59 -422 256 -510l-45 -330h-574l25 332h55q-2 -117 54 -153t186 -36h200l17 115q-213 49 -322 202t-78 380q39 274 250 444t502 170t455 -170t125 -444q-31 -227 -184 -380t-380 -202l-16 -115h199q129 0 195 36t97 153h58
l-66 -332h-573l45 330q340 90 399 510q35 254 -60 394t-305 140z" />
    <glyph glyph-name="uni03BC" unicode="&#x3bc;" horiz-adv-x="1265" 
d="M328 928q-82 0 -168 -195l-47 23q100 289 313 288q184 0 156 -229l-70 -522q-12 -86 4 -128t72 -42q80 0 194 148t138 313l61 440h205l-111 -813q-14 -113 47 -113q84 0 168 195l47 -23q-102 -291 -313 -290q-184 0 -154 229l15 113h-4q-83 -150 -187 -246t-211 -96
q-18 0 -26 2q-59 -217 -195 -376t-236 -159q-99 0 -108 72q-6 59 41 92q31 23 75 7q136 -51 184 48q25 52 34 193t22 233l103 723q16 113 -49 113z" />
    <glyph glyph-name="pi" unicode="&#x3c0;" horiz-adv-x="1310" 
d="M711 0l6 45q109 14 145 46t47 118l105 743h-451l-104 -743q-11 -86 15 -118t130 -46l-6 -45h-543l6 45q109 14 145 46t48 118l84 604q12 86 -15 118q-28 32 -130 46l6 47h1198l-6 -47q-109 -14 -145 -46t-48 -118l-84 -604q-12 -86 14 -118t132 -46l-7 -45h-542z" />
    <glyph glyph-name="uni03C2" unicode="&#x3c2;" horiz-adv-x="1443" 
d="M1085 973h-71q102 -70 148 -192t26 -269q-37 -223 -205 -378q-168 -154 -384 -154t-334 154t-81 378q35 223 201 378t383 154h328q231 0 305 203q25 66 89 57q64 -8 82 -62t-37 -119q-57 -65 -183 -107t-267 -43zM620 51q134 0 222 117t121 344t-23 344t-190 117
q-274 0 -340 -461q-33 -227 22 -344q54 -117 188 -117z" />
    <glyph glyph-name="sigma" unicode="&#x3c3;" horiz-adv-x="1443" 
d="M1085 973h-71q102 -70 148 -192t26 -269q-37 -223 -205 -378q-168 -154 -384 -154t-334 154t-81 378q35 223 201 378t383 154h328q231 0 305 203q25 66 89 57q64 -8 82 -62t-37 -119q-57 -65 -183 -107t-267 -43zM620 51q134 0 222 117t121 344t-23 344t-190 117
q-274 0 -340 -461q-33 -227 22 -344q54 -117 188 -117z" />
    <glyph glyph-name="Wgrave" unicode="&#x1e80;" horiz-adv-x="2068" 
d="M1112 1264q-10 52 -38 76t-111 46l6 48h547l-7 -48q-109 -14 -139 -56t-16 -128l141 -954h4l393 923q45 93 26 147t-132 68l6 48h461l-6 -48q-111 -16 -154 -38t-70 -84l-557 -1274h-137l-151 874l-455 -874h-119l-248 1274q-10 52 -37 76t-110 46l6 48h549l-6 -48
q-111 -14 -144 -57t-18 -127l176 -954h4l381 745zM1274 1536l-260 213q-58 49 -18 105t98 51q35 -8 53 -41l153 -305z" />
    <glyph glyph-name="wgrave" unicode="&#x1e81;" horiz-adv-x="1767" 
d="M482 -20q-106 0 -153 72q-46 72 -24 235l72 526q14 113 -49 113q-84 0 -166 -195l-49 23q104 291 315 290q186 0 154 -231l-72 -522q-12 -84 4 -126t72 -42q82 0 196 147t138 314l61 440h205l-103 -733q-25 -178 148 -178q142 0 237 102q113 121 95 367q-10 139 -66 313
q-31 96 35 133t131 -6q45 -35 57 -96q46 -240 -28 -462t-229 -353t-339 -131q-131 0 -194 63t-51 205l6 71h-4q-85 -151 -189 -245t-210 -94zM1157 1149l-27 -23l-262 213q-61 51 -16 107t90 50q45 -7 62 -42z" />
    <glyph glyph-name="Wacute" unicode="&#x1e82;" horiz-adv-x="2068" 
d="M1112 1264q-10 52 -38 76t-111 46l6 48h547l-7 -48q-109 -14 -139 -56t-16 -128l141 -954h4l393 923q45 93 26 147t-132 68l6 48h461l-6 -48q-111 -16 -154 -38t-70 -84l-557 -1274h-137l-151 874l-455 -874h-119l-248 1274q-10 52 -37 76t-110 46l6 48h549l-6 -48
q-111 -14 -144 -57t-18 -127l176 -954h4l381 745zM1262 1559l239 305q29 35 76 41t76 -49t-47 -107l-320 -213z" />
    <glyph glyph-name="wacute" unicode="&#x1e83;" horiz-adv-x="1767" 
d="M482 -20q-106 0 -153 72q-46 72 -24 235l72 526q14 113 -49 113q-84 0 -166 -195l-49 23q104 291 315 290q186 0 154 -231l-72 -522q-12 -84 4 -126t72 -42q82 0 196 147t138 314l61 440h205l-103 -733q-25 -178 148 -178q142 0 237 102q113 121 95 367q-10 139 -66 313
q-31 96 35 133t131 -6q45 -35 57 -96q46 -240 -28 -462t-229 -353t-339 -131q-131 0 -194 63t-51 205l6 71h-4q-85 -151 -189 -245t-210 -94zM1102 1149l239 305q29 35 76 41t75 -49t-48 -107l-318 -213z" />
    <glyph glyph-name="Wdieresis" unicode="&#x1e84;" horiz-adv-x="2068" 
d="M1112 1264q-10 52 -38 76t-111 46l6 48h547l-7 -48q-109 -14 -139 -56t-16 -128l141 -954h4l393 923q45 93 26 147t-132 68l6 48h461l-6 -48q-111 -16 -154 -38t-70 -84l-557 -1274h-137l-151 874l-455 -874h-119l-248 1274q-10 52 -37 76t-110 46l6 48h549l-6 -48
q-111 -14 -144 -57t-18 -127l176 -954h4l381 745zM1503 1784q49 0 78 -33t21 -82t-46 -81t-86 -32q-50 0 -78 32t-20 82t45 82t86 32zM1105 1784q48 0 77 -32q28 -32 20 -83t-45 -82t-86 -31t-77 32q-27 32 -19 82t45 82t85 32z" />
    <glyph glyph-name="wdieresis" unicode="&#x1e85;" horiz-adv-x="1767" 
d="M482 -20q-106 0 -153 72q-46 72 -24 235l72 526q14 113 -49 113q-84 0 -166 -195l-49 23q104 291 315 290q186 0 154 -231l-72 -522q-12 -84 4 -126t72 -42q82 0 196 147t138 314l61 440h205l-103 -733q-25 -178 148 -178q142 0 237 102q113 121 95 367q-10 139 -66 313
q-31 96 35 133t131 -6q45 -35 57 -96q46 -240 -28 -462t-229 -353t-339 -131q-131 0 -194 63t-51 205l6 71h-4q-85 -151 -189 -245t-210 -94zM1354 1374q49 0 78 -33q28 -33 20 -81t-45 -81q-37 -32 -86 -32t-78 32q-28 32 -20 82q8 49 45 81t86 32zM955 1374q48 0 77 -32
t21 -82t-45 -82q-37 -31 -86 -31t-77 32t-20 82q8 49 45 81t85 32z" />
    <glyph glyph-name="Ygrave" unicode="&#x1ef2;" horiz-adv-x="1310" 
d="M334 1264q-18 46 -46 72t-83 50l6 48h502l-6 -48q-112 -16 -123 -60t18 -124l211 -563h4l344 553q102 168 -86 194l6 48h420l-6 -48q-82 -16 -124 -40t-79 -82l-424 -693l-51 -362q-11 -86 15 -118t131 -46l-7 -45h-542l6 45q108 14 144 46t48 118l39 272zM922 1536
l-260 213q-58 49 -18 105t86 52q46 -5 65 -42l153 -305z" />
    <glyph glyph-name="ygrave" unicode="&#x1ef3;" horiz-adv-x="1191" 
d="M659 113q141 0 238 102q113 122 94 367q-10 139 -65 313q-31 94 39 132t131 -7q45 -31 53 -94q45 -352 -80 -700t-355 -564q-230 -215 -481 -215q-98 0 -116 72q-17 59 21 87t79 15q193 -55 416 99t325 450l-2 2q-182 -193 -403 -192q-141 0 -205 71q-63 72 -41 236
l72 526q14 113 -49 113q-84 0 -166 -195l-49 23q104 291 315 290q187 0 154 -231l-72 -522q-25 -178 147 -178zM852 1149l-27 -23l-262 213q-61 51 -16 107t90 50q45 -7 61 -42z" />
    <glyph glyph-name="figuredash" unicode="&#x2012;" horiz-adv-x="1249" 
d="M281 588h849l-12 -82h-850z" />
    <glyph glyph-name="endash" unicode="&#x2013;" horiz-adv-x="1249" 
d="M281 588h849l-12 -82h-850z" />
    <glyph glyph-name="emdash" unicode="&#x2014;" horiz-adv-x="1843" 
d="M281 588h1443l-12 -82h-1444z" />
    <glyph glyph-name="quoteleft" unicode="&#x2018;" horiz-adv-x="696" 
d="M510 1018q-94 0 -123 64t-16 147q18 133 115 237t202 140l19 -47q-131 -57 -189 -168q-43 -84 2 -109q10 -6 27 -6q53 0 85 -38t24 -91t-52 -91q-43 -38 -94 -38z" />
    <glyph glyph-name="quoteright" unicode="&#x2019;" horiz-adv-x="696" 
d="M547 1581q166 0 141 -209q-20 -135 -116 -238t-201 -141l-21 47q131 57 189 168q43 84 0 111q-12 6 -29 6q-53 0 -85 37t-24 90q7 53 51 91t95 38z" />
    <glyph glyph-name="quotesinglbase" unicode="&#x201a;" horiz-adv-x="696" 
d="M360 252q94 0 123 -64t17 -145q-18 -133 -116 -237t-200 -140l-20 47q133 57 188 168q43 82 0 109q-12 6 -28 6q-53 0 -85 37t-24 90t51 91t94 38z" />
    <glyph glyph-name="quotedblleft" unicode="&#x201c;" horiz-adv-x="1146" 
d="M508 1018q-92 0 -121 64t-16 147q18 133 115 237t202 140l17 -47q-131 -57 -187 -168q-43 -84 2 -109q10 -6 27 -6q53 0 85 -38t24 -91t-53 -91q-44 -38 -95 -38zM958 1018q-92 0 -120 64t-17 147q17 133 115 237t203 140l16 -47q-131 -57 -186 -168q-43 -84 2 -109
q10 -6 26 -6q53 0 85 -38t24 -91t-52 -91t-96 -38z" />
    <glyph glyph-name="quotedblright" unicode="&#x201d;" horiz-adv-x="1146" 
d="M997 1581q166 0 142 -209q-21 -135 -117 -238t-201 -141l-20 47q131 57 188 168q43 84 0 111q-12 6 -28 6q-53 0 -85 37t-24 90t51 91t94 38zM547 1581q166 0 141 -209q-20 -135 -116 -238t-201 -141l-21 47q131 57 189 168q43 84 0 111q-12 6 -29 6q-53 0 -85 37t-24 90
q7 53 51 91t95 38z" />
    <glyph glyph-name="quotedblbase" unicode="&#x201e;" horiz-adv-x="1146" 
d="M811 252q94 0 123 -64t16 -145q-18 -133 -115 -237t-200 -140l-21 47q133 57 189 168q43 82 0 109q-12 6 -29 6q-53 0 -85 37q-31 37 -23 90t51 91t94 38zM360 252q94 0 123 -64t17 -145q-18 -133 -116 -237t-200 -140l-20 47q133 57 188 168q43 82 0 109q-12 6 -28 6
q-53 0 -85 37t-24 90t51 91t94 38z" />
    <glyph glyph-name="dagger" unicode="&#x2020;" horiz-adv-x="1320" 
d="M400 901q-22 0 -42 24q-20 23 -16 57t32 58t50 25q22 0 93 -16t255 -35q9 272 3 299q-5 26 -2 60t31 58q28 23 62 23t54 -24t17 -46t-30 -99t-73 -271q220 21 279 36t81 15t43 -24q20 -23 16 -57q-3 -34 -31 -58t-52 -25q-24 0 -77 13q-54 13 -268 38q-5 -159 1 -237
q5 -78 3 -92q-2 -13 -20 -57q-57 -138 -84 -330l-109 -768h-61l109 768q23 204 12 288q-12 84 -10 98t26 75q24 62 72 255q-243 -28 -293 -39q-49 -12 -71 -12z" />
    <glyph glyph-name="daggerdbl" unicode="&#x2021;" horiz-adv-x="1320" 
d="M1044 0q22 0 43 -24t17 -58t-32 -58t-51 -24t-89 16t-256 35q-8 -195 -3 -271q5 -74 2 -98t-31 -48t-62 -23q-34 0 -54 25t-17 46t30 98t73 271q-218 -21 -280 -36t-84 -15t-41 24q-20 24 -16 58q3 34 31 58t50 24t76 -13q53 -13 273 -38q14 145 15 309t7 212t49 192
t70 290q-250 -28 -296 -40q-46 -11 -68 -11t-42 24q-20 23 -16 57t32 58t50 25q22 0 93 -16t255 -35q9 272 3 299q-5 26 -2 60t31 58q28 23 62 23t54 -24t17 -46t-30 -99t-73 -271q220 21 279 36t81 15t43 -24q20 -23 16 -57q-3 -34 -31 -58t-52 -25q-24 0 -77 13
q-54 13 -268 38q-16 -146 -13 -296t-3 -190t-53 -205t-72 -312q243 28 290 39q48 12 70 12z" />
    <glyph glyph-name="bullet" unicode="&#x2022;" horiz-adv-x="813" 
d="M270 475q12 84 79 143q67 60 151 60t135 -60t39 -143q-12 -84 -80 -142q-68 -59 -152 -59t-134 58t-38 143z" />
    <glyph glyph-name="onedotenleader" unicode="&#x2024;" horiz-adv-x="655" 
d="M360 238q53 0 86 -38t25 -91t-51 -91t-96 -38t-87 38t-26 91t52 91t97 38z" />
    <glyph glyph-name="twodotenleader" unicode="&#x2025;" horiz-adv-x="1126" 
d="M831 238q53 0 87 -38t24 -91q-8 -53 -51 -91t-96 -38t-87 38t-26 91t52 91t97 38zM360 238q53 0 86 -38t25 -91t-51 -91t-96 -38t-87 38t-26 91t52 91t97 38z" />
    <glyph glyph-name="ellipsis" unicode="&#x2026;" horiz-adv-x="1638" 
d="M1343 238q53 0 87 -38t24 -91q-8 -53 -51 -91t-96 -38t-87 38t-26 91t52 91t97 38zM852 238q53 0 86 -38t25 -91q-7 -53 -51 -91t-97 -38t-87 38t-26 91t52 91t98 38zM360 238q53 0 86 -38t25 -91t-51 -91t-96 -38t-87 38t-26 91t52 91t97 38z" />
    <glyph glyph-name="perthousand" unicode="&#x2030;" horiz-adv-x="2846" 
d="M2347 18q164 0 205 279q20 135 -14 206t-113 70q-168 0 -207 -276q-20 -137 14 -208t115 -71zM2436 614q130 0 201 -92t49 -225t-122 -225t-230 -92t-201 92t-48 225q21 133 121 225t230 92zM620 858q168 0 206 278t-128 277q-166 1 -206 -277q-39 -278 128 -278z
M710 1454q130 0 202 -92t48 -226q-22 -134 -121 -226t-229 -91t-202 93t-50 226t122 225t230 91zM1507 18q164 0 205 279q20 135 -13 206q-34 71 -114 70q-168 0 -207 -276q-20 -137 14 -208t115 -71zM1596 614q130 0 201 -92t49 -225t-122 -225t-230 -92t-201 92t-48 225
q21 133 121 225t230 92zM1626 1577l-936 -1700h-92l938 1700h90z" />
    <glyph glyph-name="guilsinglleft" unicode="&#x2039;" horiz-adv-x="983" 
d="M518 551l297 -318l-14 -94l-531 385l9 47l636 387l-12 -96z" />
    <glyph glyph-name="guilsinglright" unicode="&#x203a;" horiz-adv-x="983" 
d="M616 551l-297 311l13 96l530 -387l-8 -47l-637 -385l14 94z" />
    <glyph glyph-name="exclamdbl" unicode="&#x203c;" horiz-adv-x="1146" 
d="M1042 1577q124 0 93 -150l-232 -1017h-51l45 1017q4 59 40 105q35 46 105 45zM852 238q53 0 86 -38t25 -91q-7 -53 -51 -91t-97 -38t-87 38t-26 91t52 91t98 38zM551 1577q126 0 92 -150l-231 -1017h-52l46 1017q4 59 39 105q36 45 106 45zM360 238q53 0 86 -38t25 -91
t-51 -91t-96 -38t-87 38t-26 91t52 91t97 38z" />
    <glyph glyph-name="fraction" unicode="&#x2044;" horiz-adv-x="983" 
d="M1004 1577l-732 -1700h-92l733 1700h91z" />
    <glyph glyph-name="zerosuperior" unicode="&#x2070;" 
d="M662 1794q-82 0 -128 -91t-71 -267q-29 -162 -7 -261t104 -99t127 91q46 92 71 269q29 162 7 260q-21 98 -103 98zM552 1024q-150 0 -212 119t-38 291t121 292t245 121q148 0 210 -121q62 -120 40 -290t-120 -291q-97 -121 -246 -121z" />
    <glyph glyph-name="foursuperior" unicode="&#x2074;" 
d="M887 1217h-109l-24 -173h-148l25 173h-359l17 118l483 520h96l-75 -540h108zM645 1315l55 393l-366 -393h311z" />
    <glyph glyph-name="fivesuperior" unicode="&#x2075;" 
d="M534 1024q-122 0 -181 46q-58 46 -50 108q10 74 90 73q33 0 47 -15t11 -36q-27 -119 69 -119q72 0 120 46q48 45 61 137t-32 150q-46 58 -165 59h-84l61 362h422l-16 -117h-371l-31 -186q117 14 200 -8t118 -68q66 -85 51 -189q-14 -103 -106 -173t-214 -70z" />
    <glyph glyph-name="sixsuperior" unicode="&#x2076;" 
d="M544 1024q-124 0 -188 93q-63 93 -45 231q27 194 171 334t347 178l5 -43q-262 -72 -347 -338q87 65 191 65t158 -73t38 -185t-111 -186q-95 -76 -219 -76zM561 1075q57 1 97 53t55 149q14 97 -13 148q-28 51 -92 51t-127 -51q-39 -131 -17 -241t97 -109z" />
    <glyph glyph-name="sevensuperior" unicode="&#x2077;" 
d="M528 1726q-59 0 -79 -17t-39 -81h-37l37 215h522l-6 -49l-385 -750h-172l467 682h-308z" />
    <glyph glyph-name="eightsuperior" unicode="&#x2078;" 
d="M545 1024q-119 0 -190 54t-56 159q7 63 65 115t144 80q-137 84 -121 206q12 96 98 152q87 56 189 57q102 0 167 -51t52 -141q-8 -55 -56 -105t-126 -73q95 -45 131 -97t26 -127q-16 -105 -110 -167t-213 -62zM560 1075q66 1 109 41q42 40 50 103q16 113 -172 190
q-93 -61 -105 -153t20 -136q32 -45 98 -45zM669 1794q-52 0 -91 -32t-48 -89q-16 -111 142 -176q82 47 96 164q10 69 -18 101t-81 32z" />
    <glyph glyph-name="ninesuperior" unicode="&#x2079;" 
d="M675 1839q124 0 187 -93t45 -230q-27 -195 -172 -335t-348 -177l-4 43q153 41 231 130t117 207q-88 -66 -191 -66t-158 74q-54 72 -39 184t111 188t221 75zM655 1786q-120 0 -151 -205q-12 -92 14 -144q26 -53 90 -53t127 54q39 132 17 240t-97 108z" />
    <glyph glyph-name="parenleftsuperior" unicode="&#x207d;" 
d="M862 2163q-197 -272 -255 -684t63 -691h-37q-117 144 -156 324t-12 361q55 410 360 690h37z" />
    <glyph glyph-name="parenrightsuperior" unicode="&#x207e;" 
d="M369 788q197 273 255 688t-63 687h35q225 -274 170 -690q-59 -410 -363 -685h-34z" />
    <glyph glyph-name="nsuperior" unicode="&#x207f;" horiz-adv-x="917" 
d="M791 1669q69 0 107 -43t26 -139l-45 -316q-8 -51 7 -69t79 -33l-4 -25h-302l5 25q55 17 68 33t22 69l43 312q5 45 -13 73t-61 29q-74 0 -191 -84l-47 -330q-7 -53 7 -70t77 -32l-4 -25h-323l4 25q68 15 88 33t28 69l46 322q6 47 -8 65t-62 29l4 29l207 53h8l-20 -127h2
q135 127 252 127z" />
    <glyph glyph-name="zeroinferior" unicode="&#x2080;" 
d="M354 -379q82 0 128 92t71 269q29 162 7 260t-104 98t-127 -91q-46 -91 -71 -267q-29 -162 -7 -262q21 -100 103 -99zM347 -430q-149 0 -211 119t-38 291q25 172 121 292q95 120 243 121q148 0 212 -121q64 -120 40 -290t-121 -291t-246 -121z" />
    <glyph glyph-name="oneinferior" unicode="&#x2081;" 
d="M539 401l-97 -682q-6 -51 17 -70t110 -28l-4 -31h-430l4 31q92 7 121 27t35 71l72 504q6 49 -18 61t-113 13l4 31l286 73h13z" />
    <glyph glyph-name="twoinferior" unicode="&#x2082;" 
d="M276 174q-74 0 -64 68t79 114q71 45 185 45q114 1 171 -65q114 -131 -38 -340q-82 -115 -353 -289h375l-17 -117h-528l8 50q271 181 362 319q69 106 84 198q32 191 -82 191q-56 0 -81 -26t-29 -95q-2 -21 -21 -37t-51 -16z" />
    <glyph glyph-name="threeinferior" unicode="&#x2083;" 
d="M262 166q-67 0 -63 53q2 76 72 125q71 49 183 49t171 -50t49 -128t-66 -132t-143 -75v-2q90 -12 143 -61t39 -152t-107 -163q-92 -60 -218 -60t-181 47t-35 127q12 53 84 53q32 0 46 -15q14 -16 7 -60q-16 -102 79 -101q143 0 172 191q10 78 -27 122t-111 43h-39l7 50h18
q76 0 125 46q49 47 60 121t-17 110q-29 36 -74 36q-108 0 -102 -121q0 -21 -20 -37t-52 -16z" />
    <glyph glyph-name="fourinferior" unicode="&#x2084;" 
d="M682 -238h-109l-24 -172h-148l25 172h-358l16 119l483 520h97l-76 -540h108zM440 -139l56 393l-367 -393h311z" />
    <glyph glyph-name="fiveinferior" unicode="&#x2085;" 
d="M329 -430q-122 0 -181 46q-58 46 -48 108q4 33 28 53t60 20t48 -15q14 -15 10 -36q-27 -119 69 -119q72 0 120 46q47 45 61 137t-32 150t-165 58h-84l64 363h421l-16 -117h-371l-32 -186q119 14 201 -8t116 -68q66 -85 51 -189q-14 -103 -106 -173t-214 -70z" />
    <glyph glyph-name="sixinferior" unicode="&#x2086;" 
d="M339 -430q-124 0 -187 93t-46 231q28 194 172 334t347 178l4 -44q-262 -72 -346 -337q88 65 191 65q104 0 158 -73t38 -185t-112 -186q-96 -76 -219 -76zM356 -379q123 0 154 207q24 192 -106 194q-64 0 -125 -51q-39 -131 -20 -241t97 -109z" />
    <glyph glyph-name="seveninferior" unicode="&#x2087;" 
d="M324 272q-60 0 -80 -17t-39 -81h-37l37 215h522l-6 -49l-385 -750h-172l467 682h-307z" />
    <glyph glyph-name="eightinferior" unicode="&#x2088;" 
d="M340 -430q-118 0 -188 54t-56 159q8 63 64 115t143 79q-137 84 -121 207q12 96 98 152t189 57q102 0 167 -51t52 -141q-8 -55 -56 -105t-126 -73q96 -45 132 -97t26 -127q-16 -105 -110 -167t-214 -62zM356 -379q66 0 108 40t50 103q16 113 -172 191q-92 -63 -104 -153
t20 -136q32 -45 98 -45zM461 340q-49 0 -87 -33t-46 -88q-18 -109 139 -176q82 45 98 171t-104 126z" />
    <glyph glyph-name="nineinferior" unicode="&#x2089;" 
d="M470 385q124 0 187 -93t45 -231q-27 -195 -171 -335t-347 -177l-4 43q152 41 230 130t116 208q-88 -66 -191 -66t-158 74q-54 72 -38 184q15 112 111 188t220 75zM451 332q-121 0 -152 -205q-11 -92 15 -144q26 -53 90 -53t126 54q40 132 18 240t-97 108z" />
    <glyph glyph-name="parenleftinferior" unicode="&#x208d;" 
d="M657 709q-197 -273 -255 -685t63 -690h-37q-117 144 -156 324t-12 360q59 414 361 691h36z" />
    <glyph glyph-name="parenrightinferior" unicode="&#x208e;" 
d="M164 -666q197 272 255 687t-63 688h35q227 -279 169 -690t-361 -685h-35z" />
    <glyph glyph-name="colonmonetary" unicode="&#x20a1;" horiz-adv-x="1310" 
d="M764 -20q-62 0 -137 16l-29 -201h-82l33 221q-199 72 -296 259t-61 441t185 440q150 187 368 259l31 223h82l-29 -200q79 16 143 16t126 -10l26 194h82l-28 -208q133 -31 241 -99l-20 -293h-56q-16 140 -109 238t-263 98q-203 0 -359 -183t-196 -474t63 -475
q102 -184 305 -185q170 1 292 99t175 237h56l-60 -291q-113 -66 -270 -102l-31 -205h-82l29 195q-67 -10 -129 -10z" />
    <glyph glyph-name="franc" unicode="&#x20a3;" horiz-adv-x="1177" 
d="M999 1356h-358l-88 -627h184q100 0 160 45q59 45 90 162h55l-69 -492h-55q2 117 -46 162t-147 45h-184l-37 -270h229l-12 -78h-229l-13 -94q-12 -86 15 -118t131 -46l-7 -45h-542l6 45q108 14 144 46t48 118l13 94h-170l12 78h170l117 842q12 85 -16 117t-130 46l6 48
h1035l-37 -334h-55q1 124 -55 190t-165 66z" />
    <glyph glyph-name="lira" unicode="&#x20a4;" horiz-adv-x="1304" 
d="M1134 1077q-48 0 -70 22t-14 71t11 98q2 49 -32 77t-107 27q-111 0 -185 -63t-94 -177t-29 -301h306l-13 -77h-303q-6 -98 -20 -168h301l-13 -78h-309q-57 -231 -262 -404v-4q184 82 302 75t197 -37q78 -30 103 -36q85 -22 147 12t119 173h56q-72 -178 -150 -258
q-133 -139 -323 -105q-23 4 -113 41t-176 57q-166 40 -326 -22l-16 61q143 90 210 201t81 246h-185l13 78h180q2 55 -2 168h-156l12 77h144q-8 158 10 238q33 166 175 276q141 109 325 109t271 -80t73 -184q-8 -51 -49 -82t-89 -31z" />
    <glyph glyph-name="peseta" unicode="&#x20a7;" horiz-adv-x="1515" 
d="M887 1356h-205l-41 -289h510q8 125 -52 207t-212 82zM731 686q156 0 277 85t131 218h-510l-41 -303h143zM948 1434q215 0 324 -102t94 -265h180l-12 -78h-182q-43 -161 -197 -271t-426 -110h-154l-55 -399q-12 -86 15 -118t131 -46l-7 -45h-542l6 45q109 14 145 46
t47 118l109 780h-170l12 78h170l21 156q12 85 -16 117t-130 46l6 48h631z" />
    <glyph glyph-name="Euro" unicode="&#x20ac;" horiz-adv-x="1536" 
d="M1144 1454q257 0 439 -123l-20 -293h-56q-16 140 -109 238t-265 98q-171 0 -313 -136t-206 -364h373l-12 -81h-383l-10 -76q-10 -78 -11 -88h381l-12 -82h-371q3 -223 105 -357t273 -133t293 99t175 237h55l-59 -291q-217 -122 -473 -122t-417 156t-175 411h-153l12 82
h141q0 9 7 69t16 95h-142l13 81h151q84 260 290 420t463 160z" />
    <glyph glyph-name="litre" unicode="&#x2113;" horiz-adv-x="1001" 
d="M783 1395q-58 1 -105 -57t-72 -226l-55 -395q317 317 344 495q12 84 -21 134t-91 49zM624 41q162 0 281 270h37q-68 -170 -176 -260q-84 -71 -182 -71t-162 50q-62 50 -78 126t4 227l14 106l-192 -170l-20 23l221 203l69 497q27 205 125 310q101 102 205 102t150 -55
t34 -151q-14 -96 -97 -226q-83 -131 -314 -360l-49 -345q-20 -154 16 -217q39 -59 114 -59z" />
    <glyph glyph-name="afii61352" unicode="&#x2116;" horiz-adv-x="2211" 
d="M1951 858q167 0 206 278t-128 277q-167 1 -206 -277t128 -278zM2040 1454q130 0 203 -92q72 -92 49 -226t-122 -226q-100 -92 -230 -91t-200 93t-50 226q22 134 121 225t229 91zM1217 352l120 871q13 89 -15 119t-144 44l6 48h454l-6 -48q-118 -14 -156 -46t-51 -117
l-170 -1223h-125l-608 1243l-145 -1034q-13 -88 15 -119t147 -45l-7 -45h-456l6 45q115 14 154 46t51 118l141 1014q12 85 -18 117t-140 46l6 48h420z" />
    <glyph glyph-name="trademark" unicode="&#x2122;" horiz-adv-x="1953" 
d="M1319 1434l143 -506l275 506h215l-4 -29q-64 -11 -84 -29t-29 -67l-57 -406q-6 -51 10 -70t76 -28l-4 -25h-320l4 25q66 7 88 27t27 71l55 391l-282 -520h-60l-149 547l-60 -418q-5 -53 11 -71t86 -27l-5 -25h-272l4 25q74 8 94 26t27 72l57 406q8 51 -8 68t-86 28l4 29
h244zM561 1386q-63 0 -99 -28t-54 -101h-31l26 177h576l-18 -177h-33q2 72 -26 101t-91 28h-63l-70 -483q-6 -51 10 -70t78 -28l-4 -25h-320l4 25q61 7 83 27t28 71l70 483h-66z" />
    <glyph glyph-name="estimated" unicode="&#x212e;" horiz-adv-x="1589" 
d="M982 1358q-226 0 -409 -158l-55 -387h778l56 387q-144 158 -370 158zM791 -20q-313 0 -469 210q-166 205 -119 525q43 323 266 531t515 208t466 -187t137 -552h-1081l-68 -482q141 -160 367 -159q332 0 561 321l86 -53q-160 -188 -308 -275t-353 -87z" />
    <glyph glyph-name="onethird" unicode="&#x2153;" horiz-adv-x="1843" 
d="M1405 1454l-698 -1474h-82l700 1474h80zM594 1446l-96 -682q-8 -51 15 -71q24 -19 112 -27l-4 -31h-431l5 31q91 8 119 27t36 71l70 504q8 49 -16 61t-113 12l4 31l287 74h12zM1556 750q-106 0 -102 -121q0 -21 -19 -37t-51 -16q-70 -1 -65 53q2 74 74 124q71 50 183 50
t171 -50t48 -128t-67 -132t-143 -75v-2q89 -12 143 -62t40 -152t-108 -162q-93 -60 -218 -60t-180 47t-35 127q14 53 84 53q31 1 45 -15t8 -60q-14 -101 80 -101q141 0 170 190q10 78 -27 122t-110 44h-39l6 49h18q76 0 126 46t60 120t-18 112q-29 36 -74 36z" />
    <glyph glyph-name="twothirds" unicode="&#x2154;" horiz-adv-x="1843" 
d="M561 1393q-55 0 -80 -27t-28 -94q-1 -20 -21 -36t-54 -17q-34 0 -50 20t-13 53q10 62 80 108t185 46t172 -66q110 -128 -38 -340q-84 -118 -354 -288h375l-16 -117h-529l7 49q274 183 363 320q72 111 87 208q23 181 -86 181zM1446 1454l-698 -1474h-82l700 1474h80z
M1556 750q-106 0 -102 -121q0 -21 -19 -37t-51 -16q-70 -1 -65 53q2 74 74 124q71 50 183 50t171 -50t48 -128t-67 -132t-143 -75v-2q89 -12 143 -62t40 -152t-108 -162q-93 -60 -218 -60t-180 47t-35 127q14 53 84 53q31 1 45 -15t8 -60q-14 -101 80 -101q141 0 170 190
q10 78 -27 122t-110 44h-39l6 49h18q76 0 126 46t60 120t-18 112q-29 36 -74 36z" />
    <glyph glyph-name="oneeighth" unicode="&#x215b;" horiz-adv-x="1843" 
d="M1446 -20q-119 0 -189 54t-55 159q8 63 64 115t143 79q-137 84 -121 207q12 94 100 151t189 57t165 -50q64 -51 52 -142q-8 -55 -56 -104t-126 -74q96 -45 132 -97t25 -126q-14 -105 -109 -167t-214 -62zM1464 31q66 0 107 40t49 103q16 113 -170 191q-94 -61 -106 -153
t20 -136q34 -45 100 -45zM1575 453q80 44 96 170t-104 127q-49 0 -87 -33t-46 -88q-16 -111 141 -176zM1405 1454l-698 -1474h-82l700 1474h80zM594 1446l-96 -682q-8 -51 15 -71q24 -19 112 -27l-4 -31h-431l5 31q91 8 119 27t36 71l70 504q8 49 -16 61t-113 12l4 31
l287 74h12z" />
    <glyph glyph-name="threeeighths" unicode="&#x215c;" horiz-adv-x="1843" 
d="M430 666q145 0 170 190q10 78 -26 122t-109 44h-39l6 49h19q77 0 125 46q48 47 58 121t-17 110q-28 36 -72 36q-106 0 -105 -120q2 -20 -17 -36t-52 -18q-66 0 -66 54q4 76 75 125q70 49 182 49t171 -50t49 -128t-66 -133q-56 -54 -143 -74v-2q89 -11 143 -61t40 -152
t-108 -163t-218 -61q-125 0 -180 48t-35 126q14 53 82 54q31 0 45 -16t12 -35q-10 -68 7 -97q18 -28 69 -28zM1446 -20q-119 0 -189 54t-55 159q8 63 64 115t143 79q-137 84 -121 207q12 94 100 151t189 57t165 -50q64 -51 52 -142q-8 -55 -56 -104t-126 -74q96 -45 132 -97
t25 -126q-14 -105 -109 -167t-214 -62zM1464 31q66 0 107 40t49 103q16 113 -170 191q-94 -61 -106 -153t20 -136q34 -45 100 -45zM1575 453q80 44 96 170t-104 127q-49 0 -87 -33t-46 -88q-16 -111 141 -176zM1405 1454l-698 -1474h-82l700 1474h80z" />
    <glyph glyph-name="fiveeighths" unicode="&#x215d;" horiz-adv-x="1843" 
d="M440 614q-122 0 -181 46q-58 46 -50 108q10 74 90 74q31 0 46 -16t11 -35q-27 -119 70 -119q72 0 120 46t61 137t-34 149t-165 59h-84l63 362h422l-16 -116h-371l-31 -187q117 14 200 -8q133 -36 165 -158q12 -45 6 -90q-16 -112 -108 -182t-214 -70zM1446 -20
q-119 0 -189 54t-55 159q8 63 64 115t143 79q-137 84 -121 207q12 94 100 151t189 57t165 -50q64 -51 52 -142q-8 -55 -56 -104t-126 -74q96 -45 132 -97t25 -126q-14 -105 -109 -167t-214 -62zM1464 31q66 0 107 40t49 103q16 113 -170 191q-94 -61 -106 -153t20 -136
q34 -45 100 -45zM1575 453q80 44 96 170t-104 127q-49 0 -87 -33t-46 -88q-16 -111 141 -176zM1405 1454l-698 -1474h-82l700 1474h80z" />
    <glyph glyph-name="seveneighths" unicode="&#x215e;" horiz-adv-x="1843" 
d="M428 1317q-60 1 -80 -17t-39 -81h-37l37 215h522l-6 -50l-385 -749h-172l467 682h-307zM1446 -20q-119 0 -189 54t-55 159q8 63 64 115t143 79q-137 84 -121 207q12 94 100 151t189 57t165 -50q64 -51 52 -142q-8 -55 -56 -104t-126 -74q96 -45 132 -97t25 -126
q-14 -105 -109 -167t-214 -62zM1464 31q66 0 107 40t49 103q16 113 -170 191q-94 -61 -106 -153t20 -136q34 -45 100 -45zM1575 453q80 44 96 170t-104 127q-49 0 -87 -33t-46 -88q-16 -111 141 -176zM1323 1454l-698 -1474h-82l700 1474h80z" />
    <glyph glyph-name="partialdiff" unicode="&#x2202;" horiz-adv-x="1185" 
d="M823 1004q160 0 219 -125q50 216 -11 412q-26 85 -102 117q-77 32 -194 -15q-61 -25 -88 4q-37 35 -4 100q39 80 125 80q166 0 291 -144q125 -143 160 -375t-50 -521q-77 -252 -271 -405q-194 -152 -415 -152t-313 145t-19 367t263 366q190 146 409 146zM793 932
q-279 0 -418 -440t139 -441q274 0 416 441q137 440 -137 440z" />
    <glyph glyph-name="product" unicode="&#x220f;" horiz-adv-x="1515" 
d="M819 -532l6 47q109 14 146 46t47 117l237 1684h-614l-238 -1684q-10 -86 17 -118t129 -45l-6 -47h-543l6 47q109 14 146 46t47 117l217 1545q12 85 -16 117t-130 46l6 48h1362l-6 -48q-108 -14 -144 -46t-48 -117l-217 -1545q-9 -86 17 -118t128 -45l-6 -47h-543z" />
    <glyph glyph-name="summation" unicode="&#x2211;" horiz-adv-x="1204" 
d="M809 76q109 0 183 66t108 190h57l-55 -332h-1010l8 61l490 656l-305 655l8 62h958l-37 -334h-57q2 124 -54 190t-165 66h-399l301 -641l-482 -639h451z" />
    <glyph glyph-name="minus" unicode="&#x2212;" horiz-adv-x="1146" 
d="M281 588h747l-12 -82h-748z" />
    <glyph glyph-name="uni2215" unicode="&#x2215;" horiz-adv-x="983" 
d="M1004 1577l-732 -1700h-92l733 1700h91z" />
    <glyph glyph-name="uni2219" unicode="&#x2219;" horiz-adv-x="729" 
d="M459 676q69 0 111 -49t33 -119t-65 -120t-126 -50t-114 49t-34 120t68 120t127 49z" />
    <glyph glyph-name="radical" unicode="&#x221a;" horiz-adv-x="1607" 
d="M1626 1454h62l-777 -1454h-71l-213 788h-394l11 72h540l166 -655z" />
    <glyph glyph-name="infinity" unicode="&#x221e;" horiz-adv-x="1943" 
d="M648 819q160 0 263 -76q102 -76 144 -180q209 256 471 256q166 0 254 -90t70 -225t-135 -217t-277 -82t-264 75t-146 177q-205 -252 -467 -252q-166 0 -255 90q-88 90 -70 225t135 217t277 82zM1518 758q-144 0 -265 -84t-174 -172q29 -96 129 -166t240 -70t233 67
q92 67 107 169q14 102 -55 179q-71 77 -215 77zM568 266q144 0 265 84q120 84 173 172q-29 96 -129 166t-240 70t-233 -68t-107 -169q-13 -101 57 -178t214 -77z" />
    <glyph glyph-name="integral" unicode="&#x222b;" horiz-adv-x="634" 
d="M-215 -553q-92 0 -96 68q-4 57 38 88q43 31 89 15q112 -40 161 -14q31 15 56 41q40 42 90 355l180 1024q20 114 91 222t156 178t167 111q82 42 133 42q92 0 96 -68q4 -57 -38 -88t-77 -18q-168 59 -227 -19q-44 -54 -84 -294q-8 -43 -12 -66l-180 -1024
q-42 -219 -232 -386t-311 -167z" />
    <glyph glyph-name="approxequal" unicode="&#x2248;" horiz-adv-x="1126" 
d="M794 434q36 0 70 23t48 37q13 14 57 63l37 -25q-137 -215 -236 -215q-49 -1 -160 63q-112 64 -162 64t-89 -45q-13 -14 -42 -50t-41 -48l-36 27q147 236 247 235q41 -1 156 -65t151 -64zM837 741q37 0 71 23t47 37t57 63l37 -24q-39 -60 -67 -98t-77 -78t-94 -39
q-45 0 -158 63q-113 64 -149 64t-63 -16q-26 -16 -39 -29q-13 -15 -42 -51t-41 -48l-36 27q147 236 247 235q41 0 156 -64t151 -65z" />
    <glyph glyph-name="notequal" unicode="&#x2260;" horiz-adv-x="1146" 
d="M260 444h295l88 205h-354l12 82h379l158 365h90l-158 -365h279l-13 -82h-303l-88 -205h363l-13 -82h-387l-153 -362h-93l156 362h-270z" />
    <glyph glyph-name="lessequal" unicode="&#x2264;" horiz-adv-x="1146" 
d="M979 233l-21 -137h-747l12 82h670l-623 346l9 47l800 387l-12 -96l-682 -311z" />
    <glyph glyph-name="greaterequal" unicode="&#x2265;" horiz-adv-x="1146" 
d="M231 233l682 318l-594 311l13 96l694 -387l-8 -47l-717 -346h670l-13 -82h-747z" />
    <glyph glyph-name="lozenge" unicode="&#x25ca;" horiz-adv-x="1253" 
d="M303 705l506 765h45l293 -765l-508 -766h-45zM637 80l410 625l-234 622l-412 -622z" />
    <glyph glyph-name="undercommaaccent" unicode="&#xf005;" horiz-adv-x="696" 
d="M310 -94q50 0 84 -22t45 -54q26 -75 14 -135q-21 -133 -117 -237t-201 -140l-20 47q133 57 188 168q43 82 0 109l-29 6q-53 0 -85 38q-31 38 -23 91t51 91t93 38z" />
    <glyph glyph-name="Abreve.small" unicode="&#xf66d;" horiz-adv-x="1208" 
d="M653 874l-233 -452h352l-115 452h-4zM1071 168q14 -51 39 -76t88 -47l-6 -45h-506l6 45q104 14 131 61t0 123l-30 115h-410l-59 -115q-86 -157 116 -184l-6 -45h-420l6 45q78 16 115 40t68 83l493 948h109zM758 1270q-129 0 -183 92q-53 92 -36 217h53q6 -76 59 -118
t127 -42t140 42t92 118h51q-16 -125 -95 -217t-208 -92z" />
    <glyph glyph-name="Amacron.small" unicode="&#xf66e;" horiz-adv-x="1208" 
d="M653 874l-233 -452h352l-115 452h-4zM1071 168q14 -51 39 -76t88 -47l-6 -45h-506l6 45q104 14 131 61t0 123l-30 115h-410l-59 -115q-86 -157 116 -184l-6 -45h-420l6 45q78 16 115 40t68 83l493 948h109zM465 1407h645l-12 -82h-645z" />
    <glyph glyph-name="AEacute.small" unicode="&#xf670;" horiz-adv-x="1536" 
d="M995 1251l240 305q29 37 76 42t75 -50t-49 -106l-317 -213zM836 877l-224 -308h185l43 308h-4zM1044 596q94 0 147 36q52 36 81 150h55l-63 -450h-56q0 118 -40 152t-134 34h-41l-61 -442h215q240 0 295 215h55l-59 -291h-891l6 45q109 14 145 46t47 118l39 285h-227
l-190 -265q-59 -78 -45 -124t114 -60l-6 -45h-416l6 45q82 16 126 40t87 83l678 938h660l-31 -293h-55q2 119 -54 167t-171 48h-195l-61 -432h40z" />
    <glyph glyph-name="Cacute.small" unicode="&#xf671;" horiz-adv-x="1146" 
d="M786 1251l240 305q29 37 76 42t75 -50t-49 -106l-317 -213zM672 57q195 0 286 109q47 55 74 103t55 124h56l-60 -291q-217 -122 -431 -122t-363 124q-76 64 -109 180t-11 270q21 154 87 268q66 116 159 179q187 127 402 126t391 -123l-20 -293h-55q-13 145 -89 240
t-230 95t-268 -112q-114 -113 -152 -381t46 -382t232 -114z" />
    <glyph glyph-name="Ccaron.small" unicode="&#xf672;" horiz-adv-x="1146" 
d="M866 1413l256 184h58l-308 -368h-61l-205 368h56zM672 57q195 0 286 109q47 55 74 103t55 124h56l-60 -291q-217 -122 -431 -122t-363 124q-76 64 -109 180t-11 270q21 154 87 268q66 116 159 179q187 127 402 126t391 -123l-20 -293h-55q-13 145 -89 240t-230 95
t-268 -112q-114 -113 -152 -381t46 -382t232 -114z" />
    <glyph glyph-name="Ccircumflex.small" unicode="&#xf673;" horiz-adv-x="1146" 
d="M846 1413l-256 -184h-55l307 368h61l205 -368h-57zM672 57q195 0 286 109q47 55 74 103t55 124h56l-60 -291q-217 -122 -431 -122t-363 124q-76 64 -109 180t-11 270q21 154 87 268q66 116 159 179q187 127 402 126t391 -123l-20 -293h-55q-13 145 -89 240t-230 95
t-268 -112q-114 -113 -152 -381t46 -382t232 -114z" />
    <glyph glyph-name="Cdotaccent.small" unicode="&#xf674;" horiz-adv-x="1146" 
d="M940 1299q-41 -35 -92 -35t-82 34t-24 87q6 53 48 89t93 36t82 -36t23 -88t-48 -87zM672 57q195 0 286 109q47 55 74 103t55 124h56l-60 -291q-217 -122 -431 -122t-363 124q-76 64 -109 180t-11 270q21 154 87 268q66 116 159 179q187 127 402 126t391 -123l-20 -293
h-55q-13 145 -89 240t-230 95t-268 -112q-114 -113 -152 -381t46 -382t232 -114z" />
    <glyph glyph-name="Dcaron.small" unicode="&#xf675;" horiz-adv-x="1351" 
d="M854 1413l256 184h57l-307 -368h-61l-205 368h55zM604 0h-528l6 45q108 14 144 46t48 118l97 686q12 86 -16 118t-132 46l6 47h529q328 0 472 -141t107 -405t-224 -412t-509 -148zM614 76q255 0 362 139t138 361q31 220 -49 336t-338 116h-133l-133 -952h153z" />
    <glyph glyph-name="Ebreve.small" unicode="&#xf677;" horiz-adv-x="1146" 
d="M819 1270q-129 0 -182 92t-37 217h53q5 -76 59 -118t128 -42t140 42t91 118h51q-16 -125 -95 -217t-208 -92zM635 596q106 0 163 36q56 36 85 150h55l-64 -450h-55q4 114 -42 150t-152 36h-103l-61 -442h297q240 0 295 215h55l-59 -291h-973l6 45q108 14 144 46t48 118
l97 686q12 86 -16 118t-132 46l6 47h953l-31 -293h-55q2 119 -54 167t-172 48h-276l-62 -432h103z" />
    <glyph glyph-name="Ecaron.small" unicode="&#xf678;" horiz-adv-x="1146" 
d="M856 1413l256 184h57l-307 -368h-61l-205 368h55zM635 596q106 0 163 36q56 36 85 150h55l-64 -450h-55q4 114 -42 150t-152 36h-103l-61 -442h297q240 0 295 215h55l-59 -291h-973l6 45q108 14 144 46t48 118l97 686q12 86 -16 118t-132 46l6 47h953l-31 -293h-55
q2 119 -54 167t-172 48h-276l-62 -432h103z" />
    <glyph glyph-name="Edotaccent.small" unicode="&#xf679;" horiz-adv-x="1146" 
d="M745 1298q-30 35 -23 87q7 53 48 89t92 36t82 -36t24 -88t-48 -87q-40 -35 -92 -35t-83 34zM635 596q106 0 163 36q56 36 85 150h55l-64 -450h-55q4 114 -42 150t-152 36h-103l-61 -442h297q240 0 295 215h55l-59 -291h-973l6 45q108 14 144 46t48 118l97 686
q12 86 -16 118t-132 46l6 47h953l-31 -293h-55q2 119 -54 167t-172 48h-276l-62 -432h103z" />
    <glyph glyph-name="Emacron.small" unicode="&#xf67a;" horiz-adv-x="1146" 
d="M496 1407h645l-13 -82h-645zM635 596q106 0 163 36q56 36 85 150h55l-64 -450h-55q4 114 -42 150t-152 36h-103l-61 -442h297q240 0 295 215h55l-59 -291h-973l6 45q108 14 144 46t48 118l97 686q12 86 -16 118t-132 46l6 47h953l-31 -293h-55q2 119 -54 167t-172 48
h-276l-62 -432h103z" />
    <glyph glyph-name="Gbreve.small" unicode="&#xf67d;" horiz-adv-x="1290" 
d="M836 1270q-129 0 -183 92q-53 92 -37 217h54q6 -76 59 -118t127 -42t140 42t91 118h52q-16 -125 -95 -217t-208 -92zM671 57q146 0 265 97l18 133q12 85 -14 117t-133 47l8 45h512l-8 -45q-90 -14 -119 -45t-41 -119l-20 -144q-240 -163 -470 -163t-380 124
q-76 64 -109 180t-11 270q21 154 87 268q66 116 159 179q187 127 402 126t391 -123l-20 -293h-55q-13 145 -89 240t-230 95t-268 -112q-114 -113 -152 -381t46 -382t231 -114z" />
    <glyph glyph-name="Gcircumflex.small" unicode="&#xf67e;" horiz-adv-x="1290" 
d="M856 1413l-256 -184h-55l307 368h61l205 -368h-57zM671 57q146 0 265 97l18 133q12 85 -14 117t-133 47l8 45h512l-8 -45q-90 -14 -119 -45t-41 -119l-20 -144q-240 -163 -470 -163t-380 124q-76 64 -109 180t-11 270q21 154 87 268q66 116 159 179q187 127 402 126
t391 -123l-20 -293h-55q-13 145 -89 240t-230 95t-268 -112q-114 -113 -152 -381t46 -382t231 -114z" />
    <glyph glyph-name="Gcommaaccent.small" unicode="&#xf67f;" horiz-adv-x="1290" 
d="M630 -94q50 0 84 -22t45 -54q25 -73 13 -135q-20 -133 -116 -237t-201 -140l-21 47q133 57 189 168q43 82 0 109l-29 6q-53 0 -85 38t-24 91q7 53 51 91t94 38zM671 57q146 0 265 97l18 133q12 85 -14 117t-133 47l8 45h512l-8 -45q-90 -14 -119 -45t-41 -119l-20 -144
q-240 -163 -470 -163t-380 124q-76 64 -109 180t-11 270q21 154 87 268q66 116 159 179q187 127 402 126t391 -123l-20 -293h-55q-13 145 -89 240t-230 95t-268 -112q-114 -113 -152 -381t46 -382t231 -114z" />
    <glyph glyph-name="Gdotaccent.small" unicode="&#xf680;" horiz-adv-x="1290" 
d="M942 1299q-41 -35 -92 -35t-82 34t-24 87q6 53 48 89t93 36t82 -36t23 -88t-48 -87zM671 57q146 0 265 97l18 133q12 85 -14 117t-133 47l8 45h512l-8 -45q-90 -14 -119 -45t-41 -119l-20 -144q-240 -163 -470 -163t-380 124q-76 64 -109 180t-11 270q21 154 87 268
q66 116 159 179q187 127 402 126t391 -123l-20 -293h-55q-13 145 -89 240t-230 95t-268 -112q-114 -113 -152 -381t46 -382t231 -114z" />
    <glyph glyph-name="Hcircumflex.small" unicode="&#xf682;" horiz-adv-x="1454" 
d="M932 1413l-256 -184h-55l307 368h61l205 -368h-57zM1333 895l-96 -686q-11 -86 15 -118t130 -46l-6 -45h-542l6 45q108 14 144 46t48 118l45 319h-553l-45 -319q-12 -86 15 -118t131 -46l-7 -45h-542l6 45q108 14 144 46t48 118l97 686q12 86 -16 118t-132 46l6 47h543
l-6 -47q-106 -14 -142 -46t-49 -118l-40 -289h552l41 289q12 86 -15 118q-28 32 -132 46l6 47h543l-6 -47q-106 -14 -142 -46t-49 -118z" />
    <glyph glyph-name="Ibreve.small" unicode="&#xf683;" horiz-adv-x="696" 
d="M522 1270q-129 0 -182 92t-37 217h53q6 -76 60 -118t127 -42t139 42t92 118h51q-16 -125 -95 -217t-208 -92zM575 895l-96 -686q-12 -86 15 -118t131 -46l-7 -45h-542l6 45q108 14 144 46t48 118l97 686q12 86 -16 118t-132 46l6 47h543l-6 -47q-106 -14 -142 -46
t-49 -118z" />
    <glyph glyph-name="Imacron.small" unicode="&#xf685;" horiz-adv-x="696" 
d="M221 1407h645l-12 -82h-645zM578 895l-97 -686q-12 -86 15 -118t131 -46l-6 -45h-543l6 45q108 14 144 46t48 118l97 686q12 86 -16 118t-132 46l6 47h543l-6 -47q-106 -14 -142 -46t-48 -118z" />
    <glyph glyph-name="Itilde.small" unicode="&#xf687;" horiz-adv-x="696" 
d="M408 1526q42 0 160 -41t165 -41t81 15t75 61l37 -25q-39 -59 -67 -97t-77 -78t-94 -40t-160 41q-114 41 -164 41t-84 -22t-83 -76l-37 26q147 236 248 236zM578 895l-97 -686q-12 -86 15 -118t131 -46l-6 -45h-543l6 45q108 14 144 46t48 118l97 686q12 86 -16 118
t-132 46l6 47h543l-6 -47q-106 -14 -142 -46t-48 -118z" />
    <glyph glyph-name="Jcircumflex.small" unicode="&#xf688;" 
d="M668 1413l-256 -184h-56l308 368h61l205 -368h-58zM150 -20q-104 0 -117 71q-8 55 38 87t95 7q150 -71 196 -23t64 294l68 479q12 86 -16 118t-132 46l6 47h543l-6 -47q-107 -14 -143 -46t-48 -118l-53 -373q-35 -252 -175 -397t-320 -145z" />
    <glyph glyph-name="Kcommaaccent.small" unicode="&#xf689;" horiz-adv-x="1310" 
d="M650 -94q50 0 84 -22t45 -54q26 -75 14 -135q-21 -133 -117 -237t-201 -140l-20 47q133 57 188 168q43 82 0 109l-29 6q-53 0 -85 38q-31 38 -23 91t51 91t93 38zM532 594q82 0 126 14t90 58l225 215q70 59 62 111q-7 52 -109 67l6 47h450l-6 -47q-162 -29 -252 -117
l-329 -324l272 -401q49 -74 93 -115t106 -57l-6 -45h-472l7 45q66 8 71 43q6 35 -49 119l-160 233q-29 43 -57 60q-29 16 -78 16l-43 -307q-12 -86 15 -118t131 -46l-7 -45h-542l6 45q108 14 144 46t48 118l97 686q12 86 -16 118t-132 46l6 47h543l-6 -47q-106 -14 -142 -46
t-49 -118z" />
    <glyph glyph-name="Lacute.small" unicode="&#xf68a;" horiz-adv-x="1105" 
d="M506 1251l239 305q29 35 76 41t75 -49t-48 -106l-318 -213zM758 76q240 0 295 215h55l-59 -291h-973l6 45q108 14 144 46t48 118l97 686q12 86 -16 118t-132 46l6 47h543l-6 -47q-106 -14 -142 -46t-49 -118l-114 -819h297z" />
    <glyph glyph-name="Lcaron.small" unicode="&#xf68b;" horiz-adv-x="1105" 
d="M1027 1135q50 0 84 -22q34 -21 45 -53q25 -73 13 -136q-20 -134 -116 -238t-201 -139l-21 47q133 57 189 168q43 82 0 108q-12 6 -29 7q-53 -1 -85 37t-24 92t52 91q43 38 93 38zM758 76q240 0 295 215h55l-59 -291h-973l6 45q108 14 144 46t48 118l97 686q12 86 -16 118
t-132 46l6 47h543l-6 -47q-106 -14 -142 -46t-49 -118l-114 -819h297z" />
    <glyph glyph-name="Lcommaaccent.small" unicode="&#xf68c;" horiz-adv-x="1105" 
d="M583 -94q50 0 84 -22t45 -54q25 -73 13 -135q-21 -133 -117 -237t-200 -140l-21 47q133 57 188 168q43 82 0 109l-28 6q-53 0 -85 38t-24 91t51 91q44 38 94 38zM758 76q240 0 295 215h55l-59 -291h-973l6 45q108 14 144 46t48 118l97 686q12 86 -16 118t-132 46l6 47
h543l-6 -47q-106 -14 -142 -46t-49 -118l-114 -819h297z" />
    <glyph glyph-name="Ldot.small" unicode="&#xf68d;" horiz-adv-x="1105" 
d="M991 715q51 0 82 -36t24 -87t-48 -87t-93 -36t-82 35t-23 87t48 88t92 36zM758 76q240 0 295 215h55l-59 -291h-973l6 45q108 14 144 46t48 118l97 686q12 86 -16 118t-132 46l6 47h543l-6 -47q-106 -14 -142 -46t-49 -118l-114 -819h297z" />
    <glyph glyph-name="Nacute.small" unicode="&#xf68e;" horiz-adv-x="1372" 
d="M860 1251l240 305q30 37 76 42t74 -50t-48 -106l-317 -213zM1087 313l82 582q12 88 -15 119q-28 31 -146 45l6 47h454l-6 -47q-116 -14 -154 -46t-51 -118l-124 -895h-125l-533 915l-98 -706q-13 -88 15 -119t147 -45l-7 -45h-456l6 45q115 14 154 46t51 118l96 686
q12 86 -17 118q-30 32 -143 46l6 47h387z" />
    <glyph glyph-name="Ncaron.small" unicode="&#xf68f;" horiz-adv-x="1372" 
d="M911 1413l256 184h58l-307 -368h-62l-205 368h56zM1087 313l82 582q12 88 -15 119q-28 31 -146 45l6 47h454l-6 -47q-116 -14 -154 -46t-51 -118l-124 -895h-125l-533 915l-98 -706q-13 -88 15 -119t147 -45l-7 -45h-456l6 45q115 14 154 46t51 118l96 686q12 86 -17 118
q-30 32 -143 46l6 47h387z" />
    <glyph glyph-name="Ncommaaccent.small" unicode="&#xf690;" horiz-adv-x="1372" 
d="M654 -94q50 0 84 -22t45 -54q26 -75 14 -135q-21 -133 -117 -237t-201 -140l-20 47q133 57 188 168q43 82 0 109l-29 6q-52 0 -84 38t-24 91t51 91t93 38zM1087 313l82 582q12 88 -15 119q-28 31 -146 45l6 47h454l-6 -47q-116 -14 -154 -46t-51 -118l-124 -895h-125
l-533 915l-98 -706q-13 -88 15 -119t147 -45l-7 -45h-456l6 45q115 14 154 46t51 118l96 686q12 86 -17 118q-30 32 -143 46l6 47h387z" />
    <glyph glyph-name="Obreve.small" unicode="&#xf691;" horiz-adv-x="1351" 
d="M856 1270q-129 0 -182 92t-37 217h53q6 -76 60 -118t127 -42t139 42t92 118h51q-16 -125 -95 -217t-208 -92zM682 57q152 0 272 115t156 381q32 288 -58 391t-237 103t-265 -114t-156 -380t49 -381t239 -115zM834 1126q238 0 390 -152t111 -421q-25 -184 -130 -317
q-202 -256 -533 -256q-238 0 -390 150t-114 423q27 182 132 316q201 257 534 257z" />
    <glyph glyph-name="Ohungarumlaut.small" unicode="&#xf692;" horiz-adv-x="1351" 
d="M977 1243l139 356q14 37 47 54q55 25 103 -19t-9 -108l-247 -297zM649 1243l139 356q14 37 58 58t92 -23q47 -44 -8 -108l-248 -297zM682 57q152 0 272 115t156 381q32 288 -58 391t-237 103t-265 -114t-156 -380t49 -381t239 -115zM834 1126q238 0 390 -152t111 -421
q-25 -184 -130 -317q-202 -256 -533 -256q-238 0 -390 150t-114 423q27 182 132 316q201 257 534 257z" />
    <glyph glyph-name="Omacron.small" unicode="&#xf693;" horiz-adv-x="1351" 
d="M537 1407h645l-13 -82h-645zM682 57q152 0 272 115t156 381q32 288 -58 391t-237 103t-265 -114t-156 -380t49 -381t239 -115zM834 1126q238 0 390 -152t111 -421q-25 -184 -130 -317q-202 -256 -533 -256q-238 0 -390 150t-114 423q27 182 132 316q201 257 534 257z" />
    <glyph glyph-name="Oslashacute.small" unicode="&#xf694;" horiz-adv-x="1351" 
d="M673 57q161 0 281 115t156 381q20 135 -4 244l-672 -611q78 -129 239 -129zM821 1047q-153 0 -271 -114t-157 -380q-25 -184 13 -291l679 619q-68 166 -264 166zM834 1126q231 0 370 -137l131 119l45 -64l-125 -112q113 -152 80 -379q-25 -184 -130 -317
q-202 -256 -533 -256q-211 0 -344 108l-125 -111l-51 54l120 108q-139 156 -104 414q27 182 132 316q201 257 534 257zM827 1251l240 305q29 37 76 42t75 -50t-49 -106l-317 -213z" />
    <glyph glyph-name="Racute.small" unicode="&#xf695;" horiz-adv-x="1249" 
d="M598 547q358 0 393 241q16 124 -46 182t-228 58h-123l-68 -481h72zM778 1106q236 0 344 -76t84 -242q-14 -102 -109 -183t-255 -113l198 -295q68 -100 185 -152l-6 -45h-295q-78 55 -127 143l-185 328h-96l-37 -262q-12 -86 15 -118t131 -46l-7 -45h-542l6 45
q108 14 144 46t48 118l97 686q12 86 -16 118t-132 46l6 47h549zM731 1251l240 305q29 35 75 41t75 -49q28 -55 -48 -106l-317 -213z" />
    <glyph glyph-name="Rcaron.small" unicode="&#xf696;" horiz-adv-x="1249" 
d="M598 547q358 0 393 241q16 124 -46 182t-228 58h-123l-68 -481h72zM778 1106q236 0 344 -76t84 -242q-14 -102 -109 -183t-255 -113l198 -295q68 -100 185 -152l-6 -45h-295q-78 55 -127 143l-185 328h-96l-37 -262q-12 -86 15 -118t131 -46l-7 -45h-542l6 45
q108 14 144 46t48 118l97 686q12 86 -16 118t-132 46l6 47h549zM797 1413l256 184h57l-307 -368h-62l-204 368h55z" />
    <glyph glyph-name="Rcommaaccent.small" unicode="&#xf697;" horiz-adv-x="1249" 
d="M598 547q358 0 393 241q16 124 -46 182t-228 58h-123l-68 -481h72zM778 1106q236 0 344 -76t84 -242q-14 -102 -109 -183t-255 -113l198 -295q68 -100 185 -152l-6 -45h-295q-78 55 -127 143l-185 328h-96l-37 -262q-12 -86 15 -118t131 -46l-7 -45h-542l6 45
q108 14 144 46t48 118l97 686q12 86 -16 118t-132 46l6 47h549zM656 -94q50 0 84 -22t45 -54q26 -75 14 -135q-21 -133 -117 -237t-201 -140l-20 47q133 57 188 168q43 82 0 109l-28 6q-53 0 -85 38t-24 91t51 91t93 38z" />
    <glyph glyph-name="Sacute.small" unicode="&#xf698;" horiz-adv-x="972" 
d="M602 1251l240 305q30 35 76 41t74 -49t-48 -106l-317 -213zM636 1047q-197 0 -220 -148q-12 -92 40 -142t175 -97t215 -122q93 -76 73 -226q-19 -152 -153 -242t-318 -90q-186 0 -323 79l20 299h66q0 -181 87 -246q71 -53 164 -54q93 0 160 52t80 141t-60 142
q-50 38 -167 92q-155 66 -221 139q-66 74 -48 206t136 214q117 82 295 82t315 -71l-16 -287h-64q-6 131 -74 205q-69 74 -162 74z" />
    <glyph glyph-name="Scircumflex.small" unicode="&#xf69a;" horiz-adv-x="972" 
d="M664 1413l-256 -184h-56l307 368h62l205 -368h-58zM636 1047q-197 0 -220 -148q-12 -92 40 -142t175 -97t215 -122q93 -76 73 -226q-19 -152 -153 -242t-318 -90q-186 0 -323 79l20 299h66q0 -181 87 -246q71 -53 164 -54q93 0 160 52t80 141t-60 142q-50 38 -167 92
q-155 66 -221 139q-66 74 -48 206t136 214q117 82 295 82t315 -71l-16 -287h-64q-6 131 -74 205q-69 74 -162 74z" />
    <glyph glyph-name="Scommaaccent.small" unicode="&#xf69b;" horiz-adv-x="972" 
d="M435 -94q50 0 84 -22t45 -54q26 -75 14 -135q-20 -133 -116 -237t-202 -140l-20 47q133 57 188 168q43 82 0 109l-29 6q-53 0 -85 38t-24 91t52 91q43 38 93 38zM636 1047q-197 0 -220 -148q-12 -92 40 -142t175 -97t215 -122q93 -76 73 -226q-19 -152 -153 -242
t-318 -90q-186 0 -323 79l20 299h66q0 -181 87 -246q71 -53 164 -54q93 0 160 52t80 141t-60 142q-50 38 -167 92q-155 66 -221 139q-66 74 -48 206t136 214q117 82 295 82t315 -71l-16 -287h-64q-6 131 -74 205q-69 74 -162 74z" />
    <glyph glyph-name="Tcaron.small" unicode="&#xf69d;" horiz-adv-x="1105" 
d="M748 1413l256 184h57l-307 -368h-62l-205 368h56zM905 1028h-106l-115 -819q-12 -86 14 -118t131 -46l-6 -45h-542l6 45q109 14 145 46t47 118l115 819h-109q-111 0 -169 -46t-91 -169h-57l51 293h973l-31 -293h-55q2 121 -44 168t-157 47z" />
    <glyph glyph-name="Tcommaaccent.small" unicode="&#xf69e;" horiz-adv-x="1105" 
d="M513 -94q50 0 84 -22t45 -54q25 -73 13 -135q-20 -133 -116 -237t-201 -140l-21 47q133 57 189 168q43 82 0 109l-29 6q-53 0 -85 38t-24 91t52 91q43 38 93 38zM905 1028h-106l-115 -819q-12 -86 14 -118t131 -46l-6 -45h-542l6 45q109 14 145 46t47 118l115 819h-109
q-111 0 -169 -46t-91 -169h-57l51 293h973l-31 -293h-55q2 121 -44 168t-157 47z" />
    <glyph glyph-name="Ubreve.small" unicode="&#xf69f;" horiz-adv-x="1433" 
d="M934 1270q-129 0 -182 92t-37 217h53q6 -76 59 -118t127 -42t140 42t92 118h51q-16 -125 -95 -217t-208 -92zM702 -20q-481 0 -409 512l57 403q12 86 -15 118q-28 32 -132 46l6 47h543l-7 -47q-106 -14 -142 -46t-48 -118l-53 -383q-33 -228 29 -334t229 -106
q351 0 414 440l53 383q12 86 -17 118t-147 46l6 47h461l-6 -47q-119 -14 -157 -46t-50 -118l-57 -403q-35 -254 -185 -383t-373 -129z" />
    <glyph glyph-name="Uhungarumlaut.small" unicode="&#xf6a0;" horiz-adv-x="1433" 
d="M1051 1243l139 356q14 37 47 54q55 25 102 -19t-8 -108l-248 -297zM723 1243l139 356q14 37 47 54q55 25 103 -19t-8 -108l-248 -297zM702 -20q-481 0 -409 512l57 403q12 86 -15 118q-28 32 -132 46l6 47h543l-7 -47q-106 -14 -142 -46t-48 -118l-53 -383
q-33 -228 29 -334t229 -106q351 0 414 440l53 383q12 86 -17 118t-147 46l6 47h461l-6 -47q-119 -14 -157 -46t-50 -118l-57 -403q-35 -254 -185 -383t-373 -129z" />
    <glyph glyph-name="Umacron.small" unicode="&#xf6a1;" horiz-adv-x="1433" 
d="M631 1407h645l-12 -82h-646zM702 -20q-481 0 -409 512l57 403q12 86 -15 118q-28 32 -132 46l6 47h543l-7 -47q-106 -14 -142 -46t-48 -118l-53 -383q-33 -228 29 -334t229 -106q351 0 414 440l53 383q12 86 -17 118t-147 46l6 47h461l-6 -47q-119 -14 -157 -46t-50 -118
l-57 -403q-35 -254 -185 -383t-373 -129z" />
    <glyph glyph-name="Uring.small" unicode="&#xf6a3;" horiz-adv-x="1433" 
d="M936 1290q49 0 88 34t45 83q8 49 -21 83q-30 34 -79 34t-87 -34t-45 -83t21 -83t78 -34zM978 1591q77 0 123 -53t36 -131q-9 -78 -71 -131t-140 -53t-123 53t-35 131t72 131t138 53zM702 -20q-481 0 -409 512l57 403q12 86 -15 118q-28 32 -132 46l6 47h543l-7 -47
q-106 -14 -142 -46t-48 -118l-53 -383q-33 -228 29 -334t229 -106q351 0 414 440l53 383q12 86 -17 118t-147 46l6 47h461l-6 -47q-119 -14 -157 -46t-50 -118l-57 -403q-35 -254 -185 -383t-373 -129z" />
    <glyph glyph-name="Utilde.small" unicode="&#xf6a4;" horiz-adv-x="1433" 
d="M823 1526q41 0 160 -41t166 -41t81 15t75 61l36 -25q-137 -215 -235 -215q-49 0 -164 41t-164 41t-83 -22t-83 -76l-37 26q147 236 248 236zM702 -20q-481 0 -409 512l57 403q12 86 -15 118q-28 32 -132 46l6 47h543l-7 -47q-106 -14 -142 -46t-48 -118l-53 -383
q-33 -228 29 -334t229 -106q351 0 414 440l53 383q12 86 -17 118t-147 46l6 47h461l-6 -47q-119 -14 -157 -46t-50 -118l-57 -403q-35 -254 -185 -383t-373 -129z" />
    <glyph glyph-name="Wacute.small" unicode="&#xf6a5;" horiz-adv-x="1802" 
d="M1085 1251l240 305q29 37 76 42t75 -50t-49 -106l-317 -213zM973 936q-8 51 -37 75t-98 48l6 47h508l-6 -47q-104 -14 -128 -54t-10 -131l97 -645h4l321 645q41 78 15 124q-27 46 -132 61l7 47h419l-6 -47q-79 -16 -115 -40t-67 -83l-485 -946h-117l-141 760l-398 -760
h-114l-207 946q-10 51 -36 76t-91 47l6 47h508l-6 -47q-106 -14 -128 -54t-5 -131l116 -645h4l330 621z" />
    <glyph glyph-name="Wcircumflex.small" unicode="&#xf6a6;" horiz-adv-x="1802" 
d="M1143 1413l-256 -184h-56l308 368h61l205 -368h-57zM973 936q-8 51 -37 75t-98 48l6 47h508l-6 -47q-104 -14 -128 -54t-10 -131l97 -645h4l321 645q41 78 15 124q-27 46 -132 61l7 47h419l-6 -47q-79 -16 -115 -40t-67 -83l-485 -946h-117l-141 760l-398 -760h-114
l-207 946q-10 51 -36 76t-91 47l6 47h508l-6 -47q-106 -14 -128 -54t-5 -131l116 -645h4l330 621z" />
    <glyph glyph-name="Wdieresis.small" unicode="&#xf6a7;" horiz-adv-x="1802" 
d="M1356 1477q49 0 78 -33q28 -33 20 -82t-45 -81t-86 -32t-78 32q-28 32 -20 82t45 82t86 32zM957 1477q48 0 77 -32t21 -83t-45 -82t-86 -31t-77 32t-20 82t45 82t85 32zM973 936q-8 51 -37 75t-98 48l6 47h508l-6 -47q-104 -14 -128 -54t-10 -131l97 -645h4l321 645
q41 78 15 124q-27 46 -132 61l7 47h419l-6 -47q-79 -16 -115 -40t-67 -83l-485 -946h-117l-141 760l-398 -760h-114l-207 946q-10 51 -36 76t-91 47l6 47h508l-6 -47q-106 -14 -128 -54t-5 -131l116 -645h4l330 621z" />
    <glyph glyph-name="Wgrave.small" unicode="&#xf6a8;" horiz-adv-x="1802" 
d="M1139 1251l-27 -22l-262 213q-61 51 -16 107t90 49t61 -42zM973 936q-8 51 -37 75t-98 48l6 47h508l-6 -47q-104 -14 -128 -54t-10 -131l97 -645h4l321 645q41 78 15 124q-27 46 -132 61l7 47h419l-6 -47q-79 -16 -115 -40t-67 -83l-485 -946h-117l-141 760l-398 -760
h-114l-207 946q-10 51 -36 76t-91 47l6 47h508l-6 -47q-106 -14 -128 -54t-5 -131l116 -645h4l330 621z" />
    <glyph glyph-name="Ycircumflex.small" unicode="&#xf6a9;" horiz-adv-x="1146" 
d="M811 1413l-256 -184h-55l307 368h61l205 -368h-57zM305 936q-20 51 -51 79t-96 44l6 47h502l-7 -47q-113 -16 -122 -65q-9 -41 20 -120l152 -399h4l239 389q102 168 -88 195l6 47h420l-6 -47q-82 -16 -125 -41t-76 -82l-321 -528l-27 -199q-12 -86 15 -118t131 -46
l-7 -45h-542l6 45q108 14 144 46t48 118l15 108z" />
    <glyph glyph-name="Ygrave.small" unicode="&#xf6aa;" horiz-adv-x="1146" 
d="M795 1251l-27 -22l-262 213q-61 51 -16 107t90 49t61 -42zM305 936q-20 51 -51 79t-96 44l6 47h502l-7 -47q-113 -16 -122 -65q-9 -41 20 -120l152 -399h4l239 389q102 168 -88 195l6 47h420l-6 -47q-82 -16 -125 -41t-76 -82l-321 -528l-27 -199q-12 -86 15 -118
t131 -46l-7 -45h-542l6 45q108 14 144 46t48 118l15 108z" />
    <glyph glyph-name="Zacute.small" unicode="&#xf6ab;" horiz-adv-x="1095" 
d="M668 1251l239 305q29 35 76 41t75 -49t-48 -106l-318 -213zM707 76q117 0 191 48t103 167h56l-60 -291h-923l6 55l797 973h-306q-115 0 -185 -48t-101 -167h-58l52 293h864l-8 -62l-783 -968h355z" />
    <glyph glyph-name="Zdotaccent.small" unicode="&#xf6ac;" horiz-adv-x="1095" 
d="M838 1299q-40 -35 -92 -35t-82 34t-24 87q7 53 48 89t92 36t82 -36t24 -88t-48 -87zM707 76q117 0 191 48t103 167h56l-60 -291h-923l6 55l797 973h-306q-115 0 -185 -48t-101 -167h-58l52 293h864l-8 -62l-783 -968h355z" />
    <glyph glyph-name="Idotaccent.small" unicode="&#xf6ad;" horiz-adv-x="696" 
d="M438 1298q-30 35 -23 87q7 53 48 89t92 36t82 -36t24 -88t-49 -87t-92 -35q-51 0 -82 34zM575 895l-96 -686q-12 -86 15 -118t131 -46l-7 -45h-542l6 45q108 14 144 46t48 118l97 686q12 86 -16 118t-132 46l6 47h543l-6 -47q-106 -14 -142 -46t-49 -118z" />
    <glyph glyph-name="dotlessj" unicode="&#xf6be;" horiz-adv-x="608" 
d="M330 926q-84 0 -168 -195l-47 23q102 291 313 290q184 0 154 -229l-101 -723q-35 -252 -187 -448t-269 -197q-96 0 -105 72q-6 59 41 92q31 23 75 7q136 -51 184 48q25 52 34 193t22 233l101 721q14 113 -47 113z" />
    <glyph glyph-name="commaaccent" unicode="&#xf6c3;" horiz-adv-x="696" 
d="M310 -94q50 0 84 -22t45 -54q26 -75 14 -135q-21 -133 -117 -237t-201 -140l-20 47q133 57 188 168q43 82 0 109l-29 6q-53 0 -85 38q-31 38 -23 91t51 91t93 38z" />
    <glyph glyph-name="Acute" unicode="&#xf6c9;" horiz-adv-x="755" 
d="M416 1559l239 305q29 37 76 42t76 -50t-47 -107l-320 -213z" />
    <glyph glyph-name="Caron" unicode="&#xf6ca;" horiz-adv-x="962" 
d="M723 1720l254 185h57l-307 -369h-61l-205 369h55z" />
    <glyph glyph-name="Dieresis" unicode="&#xf6cb;" horiz-adv-x="1024" 
d="M960 1784q50 0 78 -33t21 -82q-8 -49 -45 -81t-86 -32t-78 32t-21 82t45 82q36 32 86 32zM562 1784q48 0 77 -32t21 -83t-46 -82q-37 -31 -86 -31q-48 0 -76 32t-20 82t45 82t85 32z" />
    <glyph glyph-name="DieresisAcute" unicode="&#xf6cc;" horiz-adv-x="1187" 
d="M768 1653l139 356q14 37 58 57q43 20 91 -22q48 -43 -7 -109l-248 -297zM1124 1784q49 0 78 -33t21 -82t-45 -81t-86 -32t-78 32t-21 82t45 82t86 32zM562 1784q48 0 77 -32t21 -83t-46 -82q-37 -31 -86 -31q-48 0 -76 32t-20 82t45 82t85 32z" />
    <glyph glyph-name="DieresisGrave" unicode="&#xf6cd;" horiz-adv-x="1187" 
d="M844 1638l-164 297q-38 66 22 109t109 18q27 -16 31 -53l39 -356zM528 1556q-48 0 -76 32t-20 82t45 82t85 32t76 -32t21 -83q-8 -51 -45 -82t-86 -31zM1092 1556q-49 0 -78 32t-21 82t45 82t86 32t78 -33t21 -82t-45 -81t-86 -32z" />
    <glyph glyph-name="Grave" unicode="&#xf6ce;" horiz-adv-x="755" 
d="M745 1536l-260 213q-59 49 -18 105t87 52q46 -5 64 -42l154 -305z" />
    <glyph glyph-name="Hungarumlaut" unicode="&#xf6cf;" horiz-adv-x="983" 
d="M776 1536l-33 14l140 357q14 37 58 57t91 -22q47 -43 -8 -109zM449 1536l-33 14l139 357q14 37 58 57t91 -22q47 -43 -8 -109z" />
    <glyph glyph-name="Macron" unicode="&#xf6d0;" horiz-adv-x="1044" 
d="M438 1714h645l-10 -82h-645z" />
    <glyph glyph-name="cyrBreve" unicode="&#xf6d1;" horiz-adv-x="921" 
d="M682 1577q-129 0 -182 92t-37 217h53q6 -76 59 -118t127 -42t140 42t92 118h51q-16 -125 -95 -217t-208 -92z" />
    <glyph glyph-name="cyrFlex" unicode="&#xf6d2;" horiz-adv-x="962" 
d="M723 1720l-258 -184h-55l307 369h61l205 -369h-57z" />
    <glyph glyph-name="dblGrave" unicode="&#xf6d3;" horiz-adv-x="983" 
d="M674 1550l-37 -14l-166 297q-37 66 23 109t108 18q27 -16 31 -53zM1001 1550l-36 -14l-166 297q-37 66 22 109t109 18q27 -16 31 -53z" />
    <glyph glyph-name="cyrbreve" unicode="&#xf6d4;" horiz-adv-x="921" 
d="M625 1167q-129 1 -183 93t-36 217h53q6 -76 59 -118t127 -42q73 0 139 42t93 118h51q-16 -125 -95 -217t-208 -93z" />
    <glyph glyph-name="cyrflex" unicode="&#xf6d5;" horiz-adv-x="962" 
d="M664 1311l-256 -185h-56l307 369h62l205 -369h-58z" />
    <glyph glyph-name="dblgrave" unicode="&#xf6d6;" horiz-adv-x="983" 
d="M580 1126l-166 297q-37 66 22 109t109 18q27 -16 30 -53l41 -356zM944 1141l-37 -15l-166 297q-37 66 23 109t108 18q27 -16 31 -53z" />
    <glyph glyph-name="dieresisacute" unicode="&#xf6d7;" horiz-adv-x="1187" 
d="M711 1243l139 356q14 37 47 54q55 25 102 -19t-8 -108l-248 -297zM1067 1374q49 0 78 -33t21 -81t-46 -81q-37 -32 -86 -32t-78 32q-28 32 -20 82q8 49 45 81t86 32zM505 1374q48 0 77 -32q28 -32 20 -82t-45 -82q-37 -31 -86 -31t-77 32q-27 32 -19 82q8 49 45 81t85 32
z" />
    <glyph glyph-name="dieresisgrave" unicode="&#xf6d8;" horiz-adv-x="1187" 
d="M786 1229l-163 297q-37 66 22 108t109 19q27 -16 30 -54l39 -356zM471 1147q-49 0 -77 32t-20 82q8 49 46 81q37 32 85 32q49 0 77 -32t20 -82q-8 -51 -45 -82t-86 -31zM1034 1147q-49 0 -78 32q-28 32 -20 82q8 49 45 81t86 32t77 -32t21 -82q-8 -49 -45 -81t-86 -32z
" />
    <glyph glyph-name="rupiah" unicode="&#xf6dd;" horiz-adv-x="2621" 
d="M733 707q195 0 284 86t109 232t-36 239q-57 92 -224 92h-184l-92 -649h143zM2114 915q-127 0 -238 -86l-68 -491q-24 -158 36 -222t149 -65q152 0 251 126t119 327t-51 306t-198 105zM928 1434q225 0 334 -104t84 -279q-47 -313 -400 -398l242 -422q55 -98 135 -135
t240 -41l98 697q9 78 -15 108t-112 45l6 47l356 92h17l-27 -143h4q147 143 339 143t288 -150t62 -384q-35 -234 -211 -382t-386 -148q-137 0 -217 61l-51 -363q-10 -86 17 -118t129 -45l-7 -47h-522l6 47q98 14 130 46t42 117l47 322h-477q-57 43 -127 172l-233 457h-139
l-60 -420q-12 -86 15 -118t131 -46l-7 -45h-542l6 45q109 14 145 46t47 118l142 1014q12 85 -16 117t-130 46l6 48h611z" />
    <glyph glyph-name="threequartersemdash" unicode="&#xf6de;" horiz-adv-x="1843" 
d="M281 588h1443l-12 -82h-1444z" />
    <glyph glyph-name="centinferior" unicode="&#xf6df;" 
d="M514 340q-112 0 -194 -93t-107 -265t33 -266t168 -93q110 -1 182 57t102 142h35l-33 -178q-123 -68 -264 -72l-28 -207h-72l29 209q-166 12 -251 121q-86 109 -60 286t142 285t283 123l31 209h72l-31 -207q127 -4 244 -74l-17 -176h-35q-8 83 -63 141t-166 58z" />
    <glyph glyph-name="centsuperior" unicode="&#xf6e0;" 
d="M719 1794q-111 0 -194 -93t-107 -265t32 -266t166 -93q110 -1 183 57q72 58 104 142h35l-33 -178q-123 -68 -264 -72l-29 -207h-71l28 209q-166 12 -252 121t-60 286q25 177 141 285t286 123l29 209h71l-28 -207q127 -4 243 -73l-16 -177h-35q-8 83 -63 141t-166 58z" />
    <glyph glyph-name="commainferior" unicode="&#xf6e1;" 
d="M360 -227q127 0 107 -158q-14 -100 -88 -179t-154 -106l-16 41q106 45 147 131q31 61 -10 74q-6 2 -14 2q-39 0 -64 27q-24 27 -18 69t38 70q32 29 72 29z" />
    <glyph glyph-name="commasuperior" unicode="&#xf6e2;" 
d="M565 1227q127 0 107 -158q-14 -100 -89 -179t-155 -106l-14 41q106 45 145 131q31 61 -10 74q-6 2 -14 2q-39 0 -63 27t-18 69t40 70q32 29 71 29z" />
    <glyph glyph-name="dollarinferior" unicode="&#xf6e3;" 
d="M324 -375q74 0 124 37t56 92q8 55 -15 89t-49 48t-108 52q-80 39 -130 91t-37 143t85 149t180 65l31 207h71l-30 -207q106 -6 190 -53l-18 -211h-37q-7 209 -149 209q-150 0 -166 -117q-8 -55 22 -86t92 -57q113 -49 166 -94q74 -62 60 -166t-90 -168t-185 -74l-29 -209
h-71l28 207q-143 4 -217 59l11 219h36q-3 -125 51 -175t128 -50z" />
    <glyph glyph-name="dollarsuperior" unicode="&#xf6e4;" 
d="M842 1581q-8 209 -153 209t-165 -117q-6 -55 25 -86t92 -57q113 -49 166 -94q75 -63 60 -166q-15 -104 -90 -168t-185 -74l-29 -209h-71l28 207q-147 4 -217 59l10 220h37q-4 -125 50 -175t128 -51q74 0 124 37q50 36 58 92t-16 90t-50 48t-106 50t-131 90
q-50 54 -37 145t85 149t180 65l29 207h71l-28 -207q109 -6 188 -53l-16 -211h-37z" />
    <glyph glyph-name="hypheninferior" unicode="&#xf6e5;" 
d="M35 41h758l-13 -92h-757z" />
    <glyph glyph-name="hyphensuperior" unicode="&#xf6e6;" 
d="M240 1495h757l-12 -92h-758z" />
    <glyph glyph-name="periodinferior" unicode="&#xf6e7;" 
d="M377 -219q43 0 69 -32t21 -74q-6 -41 -41 -73t-78 -32q-42 0 -70 32t-22 73q6 42 42 74t79 32z" />
    <glyph glyph-name="periodsuperior" unicode="&#xf6e8;" 
d="M582 1235q44 0 70 -32t20 -74q-6 -41 -41 -73t-78 -32t-71 32t-21 73q6 42 42 74t79 32z" />
    <glyph glyph-name="asuperior" unicode="&#xf6e9;" horiz-adv-x="747" 
d="M431 1106q60 0 140 53l23 144q-59 -12 -145 -35q-82 -20 -80 -91t62 -71zM635 1024q-84 0 -68 98h-2q-67 -54 -109 -76t-94 -22t-84 42q-30 42 -22 105q14 109 170 138q59 10 174 30l21 121q20 143 -97 144q-49 0 -81 -24q-53 -40 -23 -95q30 -33 -26 -62t-79 -8
q-33 67 65 158q99 92 226 92q80 0 119 -44t25 -124l-50 -299q-10 -68 17 -81t84 1l-2 -20q-111 -74 -164 -74z" />
    <glyph glyph-name="bsuperior" unicode="&#xf6ea;" horiz-adv-x="854" 
d="M736 1665q114 0 169 -91q55 -92 36 -232t-125 -229t-230 -89q-86 0 -166 61l-58 -51h-32l108 772q8 46 -7 64t-69 26l5 31l206 53h13l-56 -401q92 86 206 86zM664 1585q-76 0 -140 -53l-41 -293q-14 -94 22 -132t89 -38q90 0 149 74q59 73 71 193t-30 184q-44 64 -120 65
z" />
    <glyph glyph-name="dsuperior" unicode="&#xf6eb;" horiz-adv-x="882" 
d="M488 1024q-112 0 -170 90t-38 230t127 230q108 90 234 91q70 0 125 -37l25 178q7 46 -7 64t-67 26l4 31l205 53h14l-109 -776q-8 -58 14 -74t89 -12l-4 -33l-234 -61h-14l12 88h-2q-92 -88 -204 -88zM633 1622q-91 0 -151 -77t-72 -198t30 -184t116 -63q75 0 142 51
l43 297q12 94 -22 134q-35 40 -86 40z" />
    <glyph glyph-name="esuperior" unicode="&#xf6ec;" horiz-adv-x="720" 
d="M528 1024q-136 0 -202 92t-45 232t125 229q104 88 218 88t170 -63t11 -207h-397q-20 -125 26 -200t154 -75q107 0 194 51l-8 -51q-28 -20 -32 -23q-5 -3 -20 -13t-54 -31q-54 -29 -140 -29zM694 1444q58 178 -82 178q-64 0 -116 -48t-78 -130h276z" />
    <glyph glyph-name="isuperior" unicode="&#xf6ed;" horiz-adv-x="522" 
d="M532 1952q34 0 57 -26q21 -26 17 -58t-33 -58q-29 -24 -63 -24t-54 24t-16 58q4 36 31 60t61 24zM555 1669l-70 -498q-7 -53 7 -70t77 -32l-4 -25h-323l4 25q68 15 88 33t28 69l46 322q6 47 -8 65t-62 29l4 29l201 53h12z" />
    <glyph glyph-name="lsuperior" unicode="&#xf6ee;" horiz-adv-x="522" 
d="M600 1989l-115 -818q-7 -53 7 -70t77 -32l-4 -25h-323l4 25q68 15 88 33t28 69l91 644q5 45 -9 63t-61 29l4 26l201 56h12z" />
    <glyph glyph-name="msuperior" unicode="&#xf6ef;" horiz-adv-x="1282" 
d="M778 1669q55 0 93 -33t42 -100q115 133 246 133q68 0 105 -43t24 -139l-45 -316q-8 -51 8 -69t78 -33l-4 -25h-297l4 25q54 17 68 33t22 69l43 312q8 47 -10 75t-59 27q-74 0 -187 -84l-47 -330q-8 -51 9 -69t81 -33l-4 -25h-301l4 25q55 17 69 33t21 69l43 312
q16 102 -69 102q-76 0 -183 -84l-47 -330q-7 -53 7 -70t77 -32l-4 -25h-323l4 25q68 15 88 33t28 69l46 322q6 47 -8 65t-62 29l4 29l207 53h8q-3 -28 -20 -127h2q121 127 239 127z" />
    <glyph glyph-name="osuperior" unicode="&#xf6f0;" horiz-adv-x="792" 
d="M543 1069q162 0 202 272q37 281 -124 281q-79 0 -133 -72t-72 -209q-41 -272 127 -272zM630 1665q130 0 200 -93q70 -92 48 -228t-121 -228t-229 -92t-198 92q-70 92 -47 227t119 229q98 93 228 93z" />
    <glyph glyph-name="rsuperior" unicode="&#xf6f1;" horiz-adv-x="675" 
d="M741 1669q27 0 41 -12q38 -27 12 -78t-69 -35q-92 39 -195 -55l-45 -318q-7 -53 7 -70t77 -32l-4 -25h-323l4 25q68 15 88 33t28 69l46 322q6 47 -8 65t-62 29l4 29l207 53h8l-22 -139h2q109 139 204 139z" />
    <glyph glyph-name="ssuperior" unicode="&#xf6f2;" horiz-adv-x="622" 
d="M538 1622q-50 0 -84 -26t-39 -64t12 -63t37 -33l58 -25q92 -39 136 -82t33 -123t-85 -131t-173 -51t-171 45l6 164h33q-2 -164 139 -164q51 0 85 29t40 75q7 47 -23 73t-105 60t-111 74q-36 41 -25 115q10 74 76 122t149 48t183 -39l-11 -160h-32q-2 72 -40 114t-88 42z
" />
    <glyph glyph-name="tsuperior" unicode="&#xf6f3;" horiz-adv-x="610" 
d="M544 1102q48 0 118 16l-3 -20q-96 -74 -208 -74q-131 0 -111 147l59 428h-80l7 41l84 25l112 168h31l-25 -184h174l-8 -50h-174l-57 -407q-6 -54 14 -72q19 -18 67 -18z" />
    <glyph glyph-name="Brevesmall" unicode="&#xf6f4;" horiz-adv-x="921" 
d="M639 1270q-129 0 -182 92t-37 217h53q6 -76 59 -118t127 -42t140 42t92 118h51q-16 -125 -95 -217t-208 -92z" />
    <glyph glyph-name="Caronsmall" unicode="&#xf6f5;" horiz-adv-x="962" 
d="M678 1413l256 184h57l-307 -368h-61l-205 368h55z" />
    <glyph glyph-name="Circumflexsmall" unicode="&#xf6f6;" horiz-adv-x="962" 
d="M678 1413l-256 -184h-55l307 368h61l205 -368h-57z" />
    <glyph glyph-name="Dotaccentsmall" unicode="&#xf6f7;" horiz-adv-x="643" 
d="M590 1299q-41 -35 -92 -35t-82 34t-24 87t48 89t92 36t82 -36t24 -88t-48 -87z" />
    <glyph glyph-name="Hungarumlautsmall" unicode="&#xf6f8;" horiz-adv-x="983" 
d="M700 1243l140 356q14 37 47 54q55 25 102 -19t-8 -108l-248 -297zM373 1243l139 356q14 37 47 54q55 25 102 -19t-8 -108l-247 -297z" />
    <glyph glyph-name="Lslashsmall" unicode="&#xf6f9;" horiz-adv-x="1105" 
d="M758 76q240 0 295 215h55l-59 -291h-973l6 45q108 14 144 46t48 118l41 299h-170l13 78h170l43 309q12 86 -16 118t-132 46l6 47h543l-6 -47q-106 -14 -142 -46t-49 -118l-43 -309h189l-12 -78h-189l-59 -432h297z" />
    <glyph glyph-name="OEsmall" unicode="&#xf6fa;" horiz-adv-x="1789" 
d="M670 57q140 1 195 101q56 100 98 395q60 368 -16 452q-38 42 -126 42q-153 0 -271 -114t-156 -380t49 -381t227 -115zM1278 596q106 0 163 36q56 36 85 150h55l-63 -450h-56q4 114 -42 150t-152 36h-103l-61 -442h297q240 0 295 215h55l-59 -291h-852q-76 -20 -168 -20
q-238 0 -390 150t-114 423q27 182 132 316q201 257 534 257q92 0 159 -20h832l-31 -293h-55q1 119 -55 167t-171 48h-276l-61 -432h102z" />
    <glyph glyph-name="Ogoneksmall" unicode="&#xf6fb;" horiz-adv-x="737" 
d="M298 -465q-108 0 -138 92q-37 111 73 244q57 70 150 129h61q-122 -100 -146 -218t54 -142q51 -15 135 18l-6 -41q-75 -82 -183 -82z" />
    <glyph glyph-name="Ringsmall" unicode="&#xf6fc;" horiz-adv-x="768" 
d="M563 1290q49 0 88 34t45 83q8 49 -21 83q-30 34 -79 34t-87 -34t-45 -83q-6 -49 22 -83t77 -34zM605 1591q77 0 123 -53t36 -131t-72 -131t-139 -53q-78 0 -123 53t-35 131q9 78 71 131t139 53z" />
    <glyph glyph-name="Scaronsmall" unicode="&#xf6fd;" horiz-adv-x="972" 
d="M668 1393l256 184h57l-307 -369h-62l-204 369h55zM636 1047q-197 0 -220 -148q-12 -92 40 -142t175 -97t215 -122q93 -76 73 -226q-19 -152 -153 -242t-318 -90q-186 0 -323 79l20 299h66q0 -181 87 -246q71 -53 164 -54q93 0 160 52t80 141t-60 142q-50 38 -167 92
q-155 66 -221 139q-66 74 -48 206t136 214q117 82 295 82t315 -71l-16 -287h-64q-6 131 -74 205q-69 74 -162 74z" />
    <glyph glyph-name="Tildesmall" unicode="&#xf6fe;" horiz-adv-x="1126" 
d="M623 1526q41 0 159 -41t166 -41q47 0 81 15t75 61l37 -25q-137 -215 -236 -215q-49 0 -164 41t-163 41t-83 -22q-34 -22 -83 -76l-37 26q147 236 248 236z" />
    <glyph glyph-name="Zcaronsmall" unicode="&#xf6ff;" horiz-adv-x="1095" 
d="M756 1393l256 184h57l-307 -369h-62l-204 369h55zM707 76q117 0 191 48t103 167h56l-60 -291h-923l6 55l797 973h-306q-115 0 -185 -48t-101 -167h-58l52 293h864l-8 -62l-783 -968h355z" />
    <glyph glyph-name="exclamsmall" unicode="&#xf721;" horiz-adv-x="655" 
d="M486 1126q70 0 92 -45q20 -45 4 -104l-170 -567h-52l-16 567q-4 57 34 103t108 46zM360 238q53 0 86 -38t25 -91t-51 -91t-96 -38t-87 38t-26 91t52 91t97 38z" />
    <glyph glyph-name="dollaroldstyle" unicode="&#xf724;" horiz-adv-x="1013" 
d="M428 891q-16 -115 125 -186l47 333q-154 -16 -172 -147zM723 252q8 59 -26 100t-101 80l-51 -362q155 30 178 182zM231 358q0 -227 150 -284q37 -14 80 -17l59 416l-86 37q-119 53 -171 126q-52 72 -35 194q16 122 118 202t266 92l25 187h82l-25 -187q147 -6 279 -69
l-17 -287h-63q-3 118 -61 190t-150 84l-53 -374q170 -66 250 -141q79 -75 61 -214t-133 -228t-275 -101l-26 -189h-82l27 187q-193 8 -306 77l21 299h65z" />
    <glyph glyph-name="ampersandsmall" unicode="&#xf726;" horiz-adv-x="1497" 
d="M522 -20q-166 0 -259 80t-75 206q18 124 92 192t222 136q-68 90 -92 149q-25 59 -15 131q14 115 123 184q109 68 240 68t206 -62t60 -163q-20 -152 -299 -268l276 -338q70 76 123 172q27 53 -2 79t-131 34l6 45h426l-6 -45q-96 -8 -135 -31t-68 -74q-80 -137 -176 -229
l90 -107q68 -78 160 -94l-6 -45h-281l-110 117q-203 -137 -369 -137zM756 1049q-74 0 -115 -42q-113 -116 43 -325q185 98 201 213q8 63 -23 109q-32 46 -106 45zM615 80q116 0 237 82l-307 383q-132 -78 -150 -221q-14 -100 45 -172t175 -72z" />
    <glyph glyph-name="zerooldstyle" unicode="&#xf730;" horiz-adv-x="1228" 
d="M621 57q161 0 235 114t112 381t-5 381t-203 114t-234 -113t-111 -382q-38 -269 4 -382t202 -113zM1010 131q-146 -151 -400 -151t-358 150t-64 421q38 272 184 424q146 151 400 151t356 -152t64 -421q-38 -270 -182 -422z" />
    <glyph glyph-name="oneoldstyle" unicode="&#xf731;" horiz-adv-x="880" 
d="M711 1126l-129 -917q-12 -92 28 -118t183 -44q10 -2 16 -2l-6 -45h-707l6 45q166 14 214 45t61 119l88 635q12 80 -30 96t-206 16l7 48l454 122h21z" />
    </font>
</defs>
</svg>
