<?xml version="1.0" standalone="no"?>
<!DOCTYPE svg PUBLIC "-//W3C//DTD SVG 1.1//EN" "http://www.w3.org/Graphics/SVG/1.1/DTD/svg11.dtd" >
<svg>
<metadata>
Created by FontForge 20120731 at Mon Sep 10 14:24:22 2018
 By www
Copyright (c) 2006 by Dino dos Santos _DSType. All rights reserved.
</metadata>
<defs>
<font id="LeituraNewsW01-Roman1" horiz-adv-x="600" >
  <font-face 
    font-family="LeituraNewsW01-Roman1"
    font-weight="400"
    font-stretch="normal"
    units-per-em="1000"
    panose-1="2 0 5 3 0 0 0 2 0 4"
    ascent="800"
    descent="-200"
    x-height="500"
    cap-height="700"
    bbox="-149.058 -270.889 1289.09 930"
    underline-thickness="50"
    underline-position="-100"
    unicode-range="U+0002-2122"
  />
<missing-glyph horiz-adv-x="230" 
 />
    <glyph glyph-name=".notdef" horiz-adv-x="230" 
 />
    <glyph glyph-name=".null" horiz-adv-x="0" 
 />
    <glyph glyph-name="uni000D" unicode="&#xd;" horiz-adv-x="230" 
 />
    <glyph glyph-name="glyph225" horiz-adv-x="0" 
 />
    <glyph glyph-name="glyph225" horiz-adv-x="0" 
 />
    <glyph glyph-name="uni0002" horiz-adv-x="0" 
 />
    <glyph glyph-name="uni0009" unicode="&#x9;" horiz-adv-x="0" 
 />
    <glyph glyph-name="uni000A" unicode="&#xa;" horiz-adv-x="0" 
 />
    <glyph glyph-name="space" unicode=" " horiz-adv-x="230" 
 />
    <glyph glyph-name="exclam" unicode="!" horiz-adv-x="320" 
d="M100 50q0 25 17.5 42.5t42.5 17.5t42.5 -17.5t17.5 -42.5t-17.5 -42.5t-42.5 -17.5t-42.5 17.5t-17.5 42.5zM151 200l-45 502q-1 10 0.5 21.5t7.5 22t17 17.5t30 7t29.5 -7t15.5 -17.5t6 -22t0 -21.5l-41 -502h-20z" />
    <glyph glyph-name="quotedbl" unicode="&#x22;" horiz-adv-x="416" 
d="M316 760l-20 -195h-26l-20 195h66zM166 760l-20 -195h-26l-20 195h66z" />
    <glyph glyph-name="numbersign" unicode="#" horiz-adv-x="560" 
d="M182 205v125h-142v35h142v143h35v-143h125v143h35v-143h143v-35h-143v-125h143v-35h-143v-142h-35v142h-125v-142h-35v142h-142v35h142zM217 205h125v125h-125v-125z" />
    <glyph glyph-name="dollar" unicode="$" horiz-adv-x="535" 
d="M250 -10q-51 2 -101.5 15.5t-88.5 34.5l-10 175h25q5 -59 23 -95.5t42.5 -57t53.5 -28.5t56 -9v300q-39 16 -74 35.5t-60.5 44t-40.5 56t-15 71.5q0 34 12.5 65t36.5 55t59.5 39t81.5 18v91h35v-90q43 -2 87.5 -13t82.5 -32l10 -165h-25q-11 86 -53 128t-102 46v-268
q38 -15 74 -35t64 -46t45 -59.5t17 -75.5q0 -43 -14 -78t-40.5 -61t-63.5 -41.5t-82 -18.5v-91h-35v90zM400 166q0 27 -9.5 48.5t-25.5 39t-37 31t-43 24.5v-283q57 7 86 45t29 95zM145 560q0 -26 8.5 -47t22.5 -37.5t33.5 -30t40.5 -23.5v252q-105 -11 -105 -114z" />
    <glyph glyph-name="percent" unicode="%" horiz-adv-x="980" 
d="M684 770l-340 -830h-40l341 830h39zM591 145q0 32 11.5 60.5t31 49.5t46.5 33t59 12q31 0 57 -12t44.5 -33t29 -49.5t9.5 -60.5t-12 -60.5t-30.5 -49.5t-46.5 -33t-60 -12q-30 0 -56 12t-44.5 33t-29 49.5t-9.5 60.5zM645 145q0 -68 24 -103.5t66 -35.5t66 35.5t24 103.5
t-24 103.5t-66 35.5t-66 -35.5t-24 -103.5zM101 555q0 32 11.5 60.5t31 49.5t46.5 33t59 12q31 0 57 -12t44.5 -33t29 -49.5t9.5 -60.5t-12 -60.5t-30.5 -49.5t-46.5 -33t-60 -12q-30 0 -56 12t-44.5 33t-29 49.5t-9.5 60.5zM155 555q0 -68 24 -103.5t66 -35.5t66 35.5
t24 103.5t-24 103.5t-66 35.5t-66 -35.5t-24 -103.5z" />
    <glyph glyph-name="ampersand" unicode="&#x26;" horiz-adv-x="790" 
d="M167 205q0 -33 10.5 -63t29.5 -52.5t45 -36t58 -13.5q10 0 25.5 2.5t34.5 9.5t40 20t43 33l-208 255q-39 -28 -58.5 -67.5t-19.5 -87.5zM415 570q0 19 -5 37.5t-16 33.5t-29 24.5t-45 9.5q-26 0 -44 -9.5t-28.5 -23.5t-15 -32t-4.5 -34q0 -34 17.5 -68t55.5 -84
q34 20 56 38.5t35 36t18 35t5 36.5zM474 80q-29 -29 -56.5 -46.5t-53 -27t-48.5 -13t-41 -3.5q-43 0 -79 13t-61.5 37t-40 58.5t-14.5 78.5q0 38 10 66t29.5 51t46.5 43.5t62 44.5q-20 27 -35.5 49t-26.5 42t-16.5 40.5t-5.5 44.5q0 35 14 63.5t38 48t55 30t65 10.5
q33 0 61 -9.5t48 -27.5t31.5 -43.5t11.5 -56.5q0 -42 -33 -85t-117 -86l190 -230q17 25 32.5 56.5t29.5 71.5q13 39 -3.5 55.5t-76.5 24.5v20h220v-20q-30 -4 -46.5 -9.5t-25.5 -14.5t-14.5 -23t-13.5 -33q-20 -48 -40 -85.5t-41 -67.5l56 -67q20 -24 43.5 -38t49.5 -22v-20
h-133z" />
    <glyph glyph-name="quotesingle" unicode="'" horiz-adv-x="266" 
d="M166 760l-20 -195h-26l-20 195h66z" />
    <glyph glyph-name="parenleft" unicode="(" horiz-adv-x="375" 
d="M195 295q0 -66 7 -139t22.5 -145.5t40 -143t60.5 -132.5h-20q-59 65 -98.5 135t-63 141t-33.5 143t-10 141t10 141t33.5 143t63 141t98.5 135h20q-36 -62 -60.5 -132.5t-40 -143t-22.5 -145.5t-7 -139z" />
    <glyph glyph-name="parenright" unicode=")" horiz-adv-x="375" 
d="M180 295q0 66 -7 139t-22.5 145.5t-40 143t-60.5 132.5h20q59 -65 98.5 -135t63 -141t33.5 -143t10 -141t-10 -141t-33.5 -143t-63 -141t-98.5 -135h-20q36 62 60.5 132.5t40 143t22.5 145.5t7 139z" />
    <glyph glyph-name="asterisk" unicode="*" horiz-adv-x="442" 
d="M121 648q7 8 16.5 8.5t17.5 -7.5q3 -3 5 -7t7.5 -12t15 -21t26.5 -34q-3 27 -5.5 43.5t-4 25.5t-2 13.5t-0.5 8.5q0 11 6.5 17.5t17.5 6.5t18 -6.5t7 -17.5q0 -4 -1 -8.5t-2.5 -14.5t-4 -26t-5.5 -42q16 21 25.5 34t15 21t8 12t5.5 7q17 17 34 0q8 -8 8 -17.5t-8 -17.5
q-3 -3 -6.5 -5.5t-11.5 -8t-21 -15t-35 -27.5q27 3 43 5.5t25 5t13.5 3.5t8.5 1q11 0 18 -7t7 -18t-7 -17.5t-18 -6.5q-4 0 -8.5 0.5t-13.5 2t-25 4t-42 5.5q21 -17 33.5 -26t20 -14t11.5 -7t7 -5q8 -8 8 -18t-8 -17q-8 -8 -17.5 -8t-17.5 8q-3 3 -5.5 6.5l-7.5 10.5
t-14 19.5t-25 32.5q3 -25 5 -40t4 -24l3 -13.5t1 -7.5q0 -11 -7 -18t-18 -7t-17.5 7t-6.5 18q0 3 0.5 7.5t2 13.5t4 25t5.5 42q-17 -21 -26 -34t-14 -20.5t-7.5 -11.5t-4.5 -6q-8 -8 -18 -8t-18 8t-7.5 17.5t8.5 17.5q2 2 5.5 4.5t11 7.5t20 14.5t32.5 25.5
q-26 -3 -41.5 -5.5t-24.5 -4t-13.5 -2t-7.5 -0.5q-11 0 -17.5 6.5t-6.5 17.5t6.5 18t17.5 7q4 0 8.5 -1l13.5 -3t25 -4.5t42 -5.5q-21 17 -34 26.5t-20.5 15t-11.5 8t-6 5.5q-8 8 -8 17t8 17z" />
    <glyph glyph-name="plus" unicode="+" horiz-adv-x="560" 
d="M297 285h163v-35h-163v-162h-35v162h-162v35h162v163h35v-163z" />
    <glyph glyph-name="comma" unicode="," horiz-adv-x="340" 
d="M160 120q25 0 40.5 -10t24.5 -25t12 -32.5t3 -32.5q0 -35 -12 -64.5t-30 -52.5t-40 -39.5t-43 -23.5l-10 20q32 15 51.5 38.5t26.5 46t1.5 39t-24.5 16.5q-25 0 -42.5 17.5t-17.5 42.5t17.5 42.5t42.5 17.5z" />
    <glyph glyph-name="hyphen" unicode="-" horiz-adv-x="520" 
d="M420 285v-35h-320v35h320z" />
    <glyph glyph-name="period" unicode="." horiz-adv-x="320" 
d="M100 50q0 25 17.5 42.5t42.5 17.5t42.5 -17.5t17.5 -42.5t-17.5 -42.5t-42.5 -17.5t-42.5 17.5t-17.5 42.5z" />
    <glyph glyph-name="slash" unicode="/" horiz-adv-x="480" 
d="M380 770l-240 -830h-40l241 830h39z" />
    <glyph glyph-name="zero" unicode="0" 
d="M60 325q0 64 13.5 124t42.5 107t74.5 75.5t109.5 28.5t109.5 -28.5t74.5 -75.5t42.5 -107t13.5 -124t-13.5 -124t-42.5 -107t-74.5 -75.5t-109.5 -28.5t-109.5 28.5t-74.5 75.5t-42.5 107t-13.5 124zM150 325q0 -60 6.5 -114.5t23.5 -95.5t46 -65.5t74 -24.5t74 24.5
t46 65.5t23.5 95.5t6.5 114.5t-6.5 114.5t-23.5 95.5t-46 65.5t-74 24.5t-74 -24.5t-46 -65.5t-23.5 -95.5t-6.5 -114.5z" />
    <glyph glyph-name="one" unicode="1" horiz-adv-x="420" 
d="M170 530q0 21 -6.5 31t-21.5 14.5t-40 4.5h-62v20l200 60h10v-560q0 -21 3.5 -34.5t16.5 -22.5t39 -14t71 -9v-20h-340v20q45 4 71 9t39 14t16.5 22.5t3.5 34.5v430z" />
    <glyph glyph-name="two" unicode="2" horiz-adv-x="510" 
d="M50 40q112 82 176.5 147t96 116.5t39.5 92t8 74.5q0 30 -6 58t-19 49.5t-34 34.5t-51 13q-58 0 -78 -26.5t-16 -81.5q1 -16 -12 -24t-30 -8q-20 0 -37 12t-17 38q0 24 13 46.5t37.5 40t61 28t83.5 10.5t82.5 -15.5t59.5 -40.5t36 -57.5t12 -65.5q0 -30 -8.5 -70t-41 -91
t-96 -113t-174.5 -137h325v-70h-410v40z" />
    <glyph glyph-name="three" unicode="3" horiz-adv-x="535" 
d="M235 -10q-41 0 -75 10.5t-58.5 28t-38 40t-13.5 46.5q0 26 17 38t37 12q17 0 30 -8t12 -24q-4 -55 18.5 -81.5t75.5 -26.5q72 0 110 43t38 118q0 64 -35 101.5t-116 37.5h-36v35h26q69 0 102 38t33 110q0 62 -29.5 89.5t-82.5 27.5q-29 0 -46.5 -6.5t-26.5 -20t-11 -34
t0 -47.5q1 -16 -12 -24t-30 -8q-20 0 -37 12t-17 38q0 24 13 46.5t37.5 40t61 28t83.5 10.5q40 0 74 -11t58.5 -30.5t38 -47t13.5 -60.5q0 -59 -37 -101.5t-100 -62.5v-2q33 -4 63 -15.5t52 -31.5t35 -49t13 -69q0 -48 -19 -83.5t-51.5 -59.5t-76 -35.5t-93.5 -11.5z" />
    <glyph glyph-name="four" unicode="4" horiz-adv-x="570" 
d="M347 220v354l-278 -354h278zM530 160h-103v-160h-80v160h-307v76l333 424h54v-440h103v-60z" />
    <glyph glyph-name="five" unicode="5" horiz-adv-x="535" 
d="M450 650v-70h-293l-6 -179q93 13 155.5 -4.5t100 -50.5t53 -74.5t15.5 -76.5q0 -45 -16.5 -82.5t-47.5 -65t-75.5 -42.5t-100.5 -15q-41 0 -75 10.5t-58.5 28t-38 40t-13.5 46.5q0 26 17 38t37 12q17 0 30 -8t12 -24q-4 -55 21 -81.5t83 -26.5q37 0 64 11.5t43.5 32
t24.5 49t8 62.5q0 33 -8.5 65t-33 57.5t-68.5 41.5t-115 16h-55l10 290h330z" />
    <glyph glyph-name="six" unicode="6" horiz-adv-x="565" 
d="M415 200q0 75 -37 121t-98 46q-37 0 -71 -17.5t-59 -43.5q-8 -59 -1.5 -110t24.5 -89t46.5 -60t65.5 -22q58 0 94 44.5t36 130.5zM505 210q0 -50 -17.5 -91t-48 -69.5t-70.5 -44t-85 -15.5q-57 0 -99 21t-69.5 57t-41.5 84t-14 102q0 80 25.5 149.5t71.5 123.5t111 91
t145 52l7 -30q-66 -19 -112.5 -48.5t-78.5 -67.5t-51 -83t-29 -96q43 36 86 50t86 14q40 0 73.5 -15.5t58 -42.5t38.5 -63.5t14 -77.5z" />
    <glyph glyph-name="seven" unicode="7" horiz-adv-x="490" 
d="M208 0h-100l302 580h-250q-28 0 -45 -2.5t-27 -12t-14.5 -27.5t-8.5 -48h-25l5 160h415v-20z" />
    <glyph glyph-name="eight" unicode="8" horiz-adv-x="565" 
d="M410 504q0 57 -35 89t-89 32t-87.5 -30.5t-33.5 -81.5q0 -28 11.5 -50t33.5 -40t52 -33t68 -30q42 22 61 58.5t19 85.5zM425 153q0 50 -49.5 91.5t-137.5 73.5q-52 -28 -75 -62t-23 -80q0 -72 38.5 -111.5t107.5 -39.5q67 0 103 35.5t36 92.5zM505 177q0 -46 -20 -81
t-52 -58.5t-74 -35.5t-85 -12t-82 11t-68 33.5t-46.5 56t-17.5 78.5q0 49 40.5 91.5t107.5 71.5q-60 33 -91.5 72.5t-31.5 85.5q0 40 18.5 72t48.5 53.5t67 33t75 11.5q37 0 72 -10.5t61 -31t42 -50.5t16 -69q0 -45 -34 -87t-94 -66q79 -37 113.5 -74.5t34.5 -94.5z" />
    <glyph glyph-name="nine" unicode="9" horiz-adv-x="565" 
d="M150 450q0 -75 37 -121t98 -46q37 0 71 17.5t59 43.5q7 58 1 109.5t-24 89.5t-46.5 60t-65.5 22q-58 0 -94 -44.5t-36 -130.5zM60 440q0 50 17.5 91t48 69.5t70.5 44t85 15.5q57 0 99 -21t69.5 -57t41.5 -84t14 -102q0 -80 -25.5 -149.5t-71.5 -123.5t-111.5 -91
t-144.5 -52l-7 30q66 19 112.5 48.5t78.5 67.5t51 83t29 96q-43 -36 -86 -50t-86 -14q-40 0 -73.5 15.5t-58 42.5t-38.5 63.5t-14 77.5z" />
    <glyph glyph-name="colon" unicode=":" horiz-adv-x="320" 
d="M100 110q0 25 17.5 42.5t42.5 17.5t42.5 -17.5t17.5 -42.5t-17.5 -42.5t-42.5 -17.5t-42.5 17.5t-17.5 42.5zM100 390q0 25 17.5 42.5t42.5 17.5t42.5 -17.5t17.5 -42.5t-17.5 -42.5t-42.5 -17.5t-42.5 17.5t-17.5 42.5z" />
    <glyph glyph-name="semicolon" unicode=";" horiz-adv-x="340" 
d="M110 390q0 25 17.5 42.5t42.5 17.5t42.5 -17.5t17.5 -42.5t-17.5 -42.5t-42.5 -17.5t-42.5 17.5t-17.5 42.5zM160 120q25 0 40.5 -10t24.5 -25t12 -32.5t3 -32.5q0 -35 -12 -64.5t-30 -52.5t-40 -39.5t-43 -23.5l-10 20q32 15 51.5 38.5t26.5 46t1.5 39t-24.5 16.5
q-25 0 -42.5 17.5t-17.5 42.5t17.5 42.5t42.5 17.5z" />
    <glyph glyph-name="less" unicode="&#x3c;" horiz-adv-x="480" 
d="M146 269l234 -156v-40l-280 185v20l280 185v-40z" />
    <glyph glyph-name="equal" unicode="=" horiz-adv-x="560" 
d="M460 355v-35h-360v35h360zM460 215v-35h-360v35h360z" />
    <glyph glyph-name="greater" unicode="&#x3e;" horiz-adv-x="480" 
d="M100 423v40l280 -185v-20l-280 -185v40l234 156z" />
    <glyph glyph-name="question" unicode="?" horiz-adv-x="449" 
d="M319 550q0 28 -21 48t-50.5 35.5t-61.5 27.5t-53 23q-26 13 -31 34t6 36t36 17.5t58 -21.5q18 -13 43.5 -35.5t48.5 -52t39 -63t16 -69.5q0 -26 -4 -47t-14.5 -39t-28.5 -33.5t-45 -30.5q-23 -12 -37.5 -23.5t-22 -30.5t-7 -48.5t8.5 -77.5h-25q-20 33 -34 67.5t-14 66.5
t18.5 60t63.5 48q21 9 40.5 18t35.5 21t25.5 28.5t9.5 40.5zM129 50q0 25 17.5 42.5t42.5 17.5t42.5 -17.5t17.5 -42.5t-17.5 -42.5t-42.5 -17.5t-42.5 17.5t-17.5 42.5z" />
    <glyph glyph-name="at" unicode="@" horiz-adv-x="884" 
d="M529 249q6 30 3 50.5t-11.5 33t-20.5 18.5t-22 6q-48 0 -77.5 -41t-45.5 -109q-8 -33 -10 -66t4 -59t19.5 -42t36.5 -16q30 0 50.5 21.5t34.5 47.5q5 11 11 31t11 42.5t9.5 44.5t7.5 38zM615 375h11l-48 -258q-3 -16 -4.5 -31.5t1.5 -28t12 -20.5t27 -8q22 0 46.5 14.5
t45.5 43.5t34.5 72t13.5 100q0 78 -22.5 131t-60.5 85t-88 45.5t-105 13.5q-66 0 -123 -29t-98 -78.5t-64.5 -115t-23.5 -138.5q0 -143 69.5 -219.5t209.5 -76.5q61 0 121.5 20.5t110.5 60.5l10 -18q-54 -45 -124.5 -70.5t-148.5 -25.5q-71 0 -129 24.5t-100 68.5t-65 103.5
t-23 130.5q0 81 31.5 153t84 125t121 84t143.5 31q63 0 118.5 -18t96.5 -55t65 -93.5t24 -134.5q0 -62 -16.5 -112t-44.5 -85.5t-65 -54.5t-77 -19q-41 0 -59 22.5t-20 51.5q-15 -34 -47 -55t-64 -21q-41 0 -67.5 23t-40 57.5t-13.5 75t13 76.5q12 33 31 63t44 52.5t55 35.5
t62 13q28 0 49 -15t29 -46h3z" />
    <glyph glyph-name="A" unicode="A" horiz-adv-x="700" 
d="M605 80q5 -13 10.5 -21.5t14.5 -15.5t23 -12t37 -11v-20h-260v20q30 4 47 11t24 18t6 26t-7 35l-47 130h-250l-38 -115q-8 -23 -10 -40.5t5 -30.5t23.5 -21.5t46.5 -12.5v-20h-220v20q26 4 43 8t28 10.5t17.5 16.5t11.5 25l215 625h50zM324 600l-109 -325h225l-114 325
h-2z" />
    <glyph glyph-name="B" unicode="B" horiz-adv-x="610" 
d="M400 366q47 -12 79.5 -30.5t52.5 -42.5t29 -51.5t9 -56.5q0 -83 -58.5 -134t-171.5 -51h-300v20q30 4 48 9t27 14t12 22.5t3 34.5v500q0 21 -3 34.5t-12 22.5t-27 14t-48 9v20h270q113 0 171.5 -47.5t58.5 -122.5q0 -30 -10.5 -56t-29.5 -47t-44.5 -36t-55.5 -23v-2z
M210 345v-310h110q49 0 80.5 13t50.5 34.5t26.5 49.5t7.5 58q0 33 -11 61.5t-34 49t-60.5 32.5t-89.5 12h-80zM270 380q53 0 88.5 10t57 28t30.5 44t9 58q0 30 -7.5 56.5t-25 46t-47.5 31t-75 11.5h-90v-285h60z" />
    <glyph glyph-name="C" unicode="C" horiz-adv-x="640" 
d="M380 25q45 0 80 14.5t60 38t41 53t24 59.5h25l-10 -140q-15 -9 -37 -19.5t-50.5 -19.5t-62 -15t-70.5 -6q-71 0 -131 26.5t-104.5 74.5t-69.5 114t-25 145t25 145t69.5 114t104.5 74.5t131 26.5q37 0 70.5 -6t62 -15t50.5 -19.5t37 -19.5l10 -140h-25q-8 30 -24 59.5
t-41 53t-60 38t-80 14.5q-52 0 -96 -24t-76 -67t-50 -103t-18 -131t18 -131t50 -103t76 -67t96 -24z" />
    <glyph glyph-name="D" unicode="D" horiz-adv-x="740" 
d="M340 35q68 0 117.5 27t81 71t46.5 101t15 116q0 69 -16 127t-49 100t-84 65t-121 23h-120v-630h130zM40 0v20q30 4 48 9t27 14t12 22.5t3 34.5v500q0 21 -3 34.5t-12 22.5t-27 14t-48 9v20h300q81 0 145.5 -24t110 -69t70 -110t24.5 -147q0 -77 -24.5 -141.5t-70 -111
t-110 -72t-145.5 -25.5h-300z" />
    <glyph glyph-name="E" unicode="E" 
d="M210 370h100q49 0 75 20t33 80h25v-235h-25q-7 60 -33 80t-75 20h-100v-300h195q57 0 89.5 32t40.5 93h25l-10 -160h-510v20q30 4 48 9t27 14t12 22.5t3 34.5v500q0 21 -3 34.5t-12 22.5t-27 14t-48 9v20h500l5 -160h-25q-8 61 -38 93t-87 32h-185v-295z" />
    <glyph glyph-name="F" unicode="F" horiz-adv-x="575" 
d="M210 100q0 -21 3 -34.5t12 -22.5t27 -14t48 -9v-20h-260v20q30 4 48 9t27 14t12 22.5t3 34.5v500q0 21 -3 34.5t-12 22.5t-27 14t-48 9v20h500l5 -160h-25q-8 61 -38 93t-87 32h-185v-310h100q49 0 75 20t33 80h25v-235h-25q-7 60 -33 80t-75 20h-100v-220z" />
    <glyph glyph-name="G" unicode="G" horiz-adv-x="710" 
d="M380 25q52 0 91.5 19t68.5 48v118q0 21 -3 34.5t-12 22.5t-27 14t-48 9v20h240v-20q-23 -4 -36.5 -9t-21 -14t-10 -22.5t-2.5 -34.5v-140q-15 -11 -40.5 -25t-57 -26t-68.5 -20.5t-74 -8.5q-71 0 -131 26.5t-104.5 74.5t-69.5 114t-25 145t25 145t69.5 114t104.5 74.5
t131 26.5q37 0 70.5 -6t62 -15t50.5 -19.5t37 -19.5l10 -140h-25q-8 30 -24 59.5t-41 53t-60 38t-80 14.5q-52 0 -96 -24t-76 -67t-50 -103t-18 -131t18 -131t50 -103t76 -67t96 -24z" />
    <glyph glyph-name="H" unicode="H" horiz-adv-x="780" 
d="M570 340h-360v-240q0 -21 3 -34.5t12 -22.5t27 -14t48 -9v-20h-260v20q30 4 48 9t27 14t12 22.5t3 34.5v500q0 21 -3 34.5t-12 22.5t-27 14t-48 9v20h260v-20q-30 -4 -48 -9t-27 -14t-12 -22.5t-3 -34.5v-225h360v225q0 21 -3 34.5t-12 22.5t-27 14t-48 9v20h260v-20
q-30 -4 -48 -9t-27 -14t-12 -22.5t-3 -34.5v-500q0 -21 3 -34.5t12 -22.5t27 -14t48 -9v-20h-260v20q30 4 48 9t27 14t12 22.5t3 34.5v240z" />
    <glyph glyph-name="I" unicode="I" horiz-adv-x="340" 
d="M130 600q0 21 -3 34.5t-12 22.5t-27 14t-48 9v20h260v-20q-30 -4 -48 -9t-27 -14t-12 -22.5t-3 -34.5v-500q0 -21 3 -34.5t12 -22.5t27 -14t48 -9v-20h-260v20q30 4 48 9t27 14t12 22.5t3 34.5v500z" />
    <glyph glyph-name="J" unicode="J" horiz-adv-x="400" 
d="M190 600q0 21 -3 34.5t-12 22.5t-27 14t-48 9v20h260v-20q-30 -4 -48 -9t-27 -14t-12 -22.5t-3 -34.5v-340q0 -68 -15.5 -118.5t-42 -84t-61 -50.5t-71.5 -17q-34 0 -47.5 15.5t-12 32.5t16.5 28.5t38 3.5q49 -17 73 -19.5t33.5 13t9 51t-0.5 95.5v390z" />
    <glyph glyph-name="K" unicode="K" horiz-adv-x="734" 
d="M450 575q12 15 20 32t6.5 32t-16 26t-46.5 15v20h250v-20q-52 -8 -87.5 -27.5t-61.5 -52.5l-180 -225l220 -255q27 -32 64 -62t85 -38v-20h-290v20q30 4 44.5 13t17.5 22t-4.5 28.5t-21.5 31.5l-155 180q-13 15 -22.5 24t-18.5 13.5t-19 6t-25 1.5v-240q0 -21 3 -34.5
t12 -22.5t27 -14t48 -9v-20h-260v20q30 4 48 9t27 14t12 22.5t3 34.5v500q0 21 -3 34.5t-12 22.5t-27 14t-48 9v20h260v-20q-30 -4 -48 -9t-27 -14t-12 -22.5t-3 -34.5v-230q22 0 38.5 2.5t29.5 8t24 15t23 24.5z" />
    <glyph glyph-name="L" unicode="L" horiz-adv-x="580" 
d="M405 35q57 0 89.5 32t40.5 93h25l-10 -160h-510v20q30 4 48 9t27 14t12 22.5t3 34.5v500q0 21 -3 34.5t-12 22.5t-27 14t-48 9v20h260v-20q-30 -4 -48 -9t-27 -14t-12 -22.5t-3 -34.5v-565h195z" />
    <glyph glyph-name="M" unicode="M" horiz-adv-x="880" 
d="M660 700h180v-20q-30 -4 -48 -9t-27 -14t-12 -22.5t-3 -34.5v-500q0 -21 3 -34.5t12 -22.5t27 -14t48 -9v-20h-260v20q30 4 48 9t27 14t12 22.5t3 34.5v510l-225 -615h-40l-235 625v-520q0 -21 3 -34.5t12 -22.5t27 -14t48 -9v-20h-220v20q30 4 48 9t27 14t12 22.5
t3 34.5v500q0 21 -3 34.5t-12 22.5t-27 14t-48 9v20h195l215 -580z" />
    <glyph glyph-name="N" unicode="N" horiz-adv-x="730" 
d="M570 600q0 21 -3 34.5t-12 22.5t-27 14t-48 9v20h220v-20q-30 -4 -48 -9t-27 -14t-12 -22.5t-3 -34.5v-600h-50l-390 620v-520q0 -21 3 -34.5t12 -22.5t27 -14t48 -9v-20h-220v20q30 4 48 9t27 14t12 22.5t3 34.5v500q0 21 -3 34.5t-12 22.5t-27 14t-48 9v20h190
l340 -550v450z" />
    <glyph glyph-name="O" unicode="O" horiz-adv-x="780" 
d="M50 350q0 79 26.5 145t73 114t108 74.5t132.5 26.5q70 0 132 -26.5t108.5 -74.5t73 -114t26.5 -145t-26.5 -145t-73 -114t-108.5 -74.5t-132 -26.5q-71 0 -132.5 26.5t-108 74.5t-73 114t-26.5 145zM140 350q0 -71 19.5 -131t53.5 -103t79.5 -67t97.5 -24t97.5 24
t79.5 67t53.5 103t19.5 131t-19.5 131t-53.5 103t-79.5 67t-97.5 24t-97.5 -24t-79.5 -67t-53.5 -103t-19.5 -131z" />
    <glyph glyph-name="P" unicode="P" horiz-adv-x="610" 
d="M290 335q56 0 93.5 13.5t60 36t32 52.5t9.5 63q0 30 -7.5 59.5t-26.5 53t-50.5 38t-80.5 14.5h-110v-330h80zM210 300v-200q0 -21 3 -34.5t12 -22.5t27 -14t48 -9v-20h-260v20q30 4 48 9t27 14t12 22.5t3 34.5v500q0 21 -3 34.5t-12 22.5t-27 14t-48 9v20h300
q56 0 99 -14t72 -39.5t44 -60.5t15 -76q0 -38 -14 -75.5t-47 -67.5t-86.5 -48.5t-132.5 -18.5h-80z" />
    <glyph glyph-name="Q" unicode="Q" horiz-adv-x="780" 
d="M50 350q0 79 26.5 145t73 114t108 74.5t132.5 26.5q70 0 132 -26.5t108.5 -74.5t73 -114t26.5 -145q0 -72 -22 -133t-61 -107.5t-92 -76.5t-114 -39q24 -25 55 -56t70 -60.5t87.5 -52t106.5 -30.5v-15q-23 -7 -51.5 -13.5t-58.5 -6.5q-50 0 -93.5 28.5t-80 66.5t-64 76.5
t-44.5 59.5q-67 4 -125 32.5t-101 75.5t-67.5 111t-24.5 140zM140 350q0 -71 19.5 -131t53.5 -103t79.5 -67t97.5 -24t97.5 24t79.5 67t53.5 103t19.5 131t-19.5 131t-53.5 103t-79.5 67t-97.5 24t-97.5 -24t-79.5 -67t-53.5 -103t-19.5 -131z" />
    <glyph glyph-name="R" unicode="R" horiz-adv-x="670" 
d="M210 310v-210q0 -21 3 -34.5t12 -22.5t27 -14t48 -9v-20h-260v20q30 4 48 9t27 14t12 22.5t3 34.5v500q0 21 -3 34.5t-12 22.5t-27 14t-48 9v20h290q113 0 171.5 -51t58.5 -134q0 -31 -8.5 -61t-28.5 -56t-53.5 -46.5t-84.5 -31.5l155 -215q23 -32 53.5 -54.5t56.5 -30.5
v-20h-130q-11 7 -22.5 18.5t-22 24t-19.5 25t-16 22.5l-150 220h-80zM290 345q56 0 92 12.5t56.5 34.5t28.5 51t8 62q0 30 -7.5 58.5t-26.5 51t-50.5 36.5t-80.5 14h-100v-320h80z" />
    <glyph glyph-name="S" unicode="S" horiz-adv-x="535" 
d="M440 500q-12 90 -57.5 132.5t-109.5 42.5q-128 0 -128 -115q0 -32 12 -56t32.5 -42.5t46 -32t52.5 -24.5q37 -15 72.5 -35t63.5 -46.5t44.5 -59.5t16.5 -74q0 -45 -16 -82t-45 -63t-70 -40.5t-91 -14.5q-54 0 -107.5 13.5t-95.5 36.5l-10 175h25q6 -62 25.5 -99.5
t46 -57.5t57.5 -26.5t59 -6.5q69 0 103 39.5t34 101.5q0 34 -15 59.5t-38 45t-52 33.5t-57 26q-38 16 -70.5 35.5t-56.5 43.5t-37.5 54.5t-13.5 68.5q0 37 14 69.5t41 56.5t66.5 38t90.5 14q46 0 93.5 -11t89.5 -34l10 -165h-25z" />
    <glyph glyph-name="T" unicode="T" 
d="M565 700l5 -160h-25q-8 61 -38 93t-87 32h-80v-565q0 -21 3 -34.5t12 -22.5t27 -14t48 -9v-20h-260v20q30 4 48 9t27 14t12 22.5t3 34.5v565h-80q-57 0 -87 -32t-38 -93h-25l5 160h530z" />
    <glyph glyph-name="U" unicode="U" horiz-adv-x="760" 
d="M600 600q0 21 -3 34.5t-12 22.5t-27 14t-48 9v20h220v-20q-30 -4 -48 -9t-27 -14t-12 -22.5t-3 -34.5v-330q0 -68 -18.5 -120t-53 -87.5t-83.5 -54t-110 -18.5q-66 0 -114 19.5t-79.5 55.5t-46.5 88t-15 117v330q0 21 -3 34.5t-12 22.5t-27 14t-48 9v20h260v-20
q-30 -4 -48 -9t-27 -14t-12 -22.5t-3 -34.5v-320q0 -121 46.5 -185.5t148.5 -64.5t153.5 64.5t51.5 185.5v320z" />
    <glyph glyph-name="V" unicode="V" horiz-adv-x="700" 
d="M95 620q-5 13 -10.5 21.5t-14.5 15.5t-23.5 12t-36.5 11v20h260v-20q-30 -4 -47 -11t-24.5 -18.5t-6.5 -26.5t8 -34l174 -490h2l159 475q7 22 9.5 40t-4.5 31t-23.5 21.5t-46.5 12.5v20h220v-20q-26 -4 -43 -8t-28 -10.5t-17.5 -16.5t-11.5 -25l-215 -625h-50z" />
    <glyph glyph-name="W" unicode="W" horiz-adv-x="1010" 
d="M465 620q-4 13 -9.5 22t-14.5 15.5t-24 11.5t-37 11v20h260v-20q-30 -4 -47 -11t-24 -18t-6 -26.5t7 -34.5l139 -485h2l134 470q6 23 8 41t-4 31t-22.5 21t-46.5 12v20h220v-20q-26 -4 -43 -8t-28 -10.5t-17.5 -16.5t-11.5 -25l-185 -625h-60l-136 444l-168 -444h-50
l-208 625q-4 13 -9 21.5t-14 15.5t-23.5 12t-36.5 11v20h260v-20q-30 -4 -47.5 -11t-25 -18.5t-7 -26.5t6.5 -34l157 -485h2l146 392z" />
    <glyph glyph-name="X" unicode="X" horiz-adv-x="720" 
d="M170 600q-21 37 -49.5 53.5t-75.5 26.5v20h285v-20q-26 -3 -39 -12t-16.5 -21.5t1 -28.5t14.5 -33l97 -173l113 166q29 42 21 69t-71 33v20h225v-20q-25 -5 -42 -11t-30 -15.5t-24 -22.5t-24 -31l-150 -220l165 -280q10 -19 22 -31t26 -20.5t31.5 -15t40.5 -13.5v-20
h-295v20q31 4 46 15t18.5 26t-2.5 34t-17 40l-95 170l-120 -170q-13 -18 -20 -36.5t-4 -34.5t18 -27.5t46 -16.5v-20h-235v20q25 7 44 14t34 16t27.5 21t24.5 29l165 235z" />
    <glyph glyph-name="Y" unicode="Y" horiz-adv-x="640" 
d="M85 620q-13 24 -29 36.5t-46 23.5v20h240v-20q-30 -4 -44 -11.5t-17.5 -19t2 -26.5t14.5 -33l144 -280h2l134 275q17 37 7.5 62t-62.5 33v20h200v-20q-18 -4 -31.5 -8.5t-24 -11t-18.5 -16.5t-16 -24l-165 -344v-176q0 -21 3 -34.5t12 -22.5t27 -14t48 -9v-20h-260v20
q30 4 48 9t27 14t12 22.5t3 34.5v133z" />
    <glyph glyph-name="Z" unicode="Z" 
d="M155 35h250q57 0 89.5 32t40.5 93h25l-10 -160h-510v20l400 645h-228q-57 0 -87 -32t-38 -93h-25l5 160h483v-20z" />
    <glyph glyph-name="bracketleft" unicode="[" horiz-adv-x="380" 
d="M330 -260h-230v1115h230v-35h-160v-1045h160v-35z" />
    <glyph glyph-name="backslash" unicode="\" horiz-adv-x="480" 
d="M139 770l241 -830h-40l-240 830h39z" />
    <glyph glyph-name="bracketright" unicode="]" horiz-adv-x="380" 
d="M50 -225h160v1045h-160v35h230v-1115h-230v35z" />
    <glyph glyph-name="asciicircum" unicode="^" horiz-adv-x="510" 
d="M120 490h-20l145 230h20l145 -230h-20l-135 145z" />
    <glyph glyph-name="underscore" unicode="_" horiz-adv-x="610" 
d="M510 -50v-35h-410v35h410z" />
    <glyph glyph-name="grave" unicode="`" horiz-adv-x="369" 
d="M120 653q-21 15 -20 32.5t13 29t30 11.5t31 -19l95 -148l-10 -9z" />
    <glyph glyph-name="a" unicode="a" horiz-adv-x="500" 
d="M390 130q-1 -30 5.5 -45.5t19.5 -21t32 -4t43 5.5v-15q-45 -30 -71 -45t-49 -15q-19 0 -30.5 7t-18 18t-9 25.5t-2.5 29.5h-2q-42 -38 -77.5 -59t-80.5 -21q-22 0 -42 9t-35 25.5t-24 38t-9 47.5q0 47 35 73t95 37l143 25l2 105q1 60 -29.5 90t-75.5 30q-34 0 -53.5 -12
t-28 -28.5t-6 -33.5t12.5 -26q16 -15 8.5 -29t-24 -23t-35 -10t-24.5 12q-11 24 -0.5 56.5t38.5 62t72 50.5t100 21q60 0 93.5 -35.5t31.5 -99.5zM312 220l-127 -30q-38 -9 -54.5 -30.5t-11.5 -52.5q5 -33 23 -47.5t38 -14.5q17 0 31.5 2.5t29.5 8t31.5 15t37.5 24.5z" />
    <glyph glyph-name="b" unicode="b" horiz-adv-x="580" 
d="M295 455q-38 0 -70 -13.5t-55 -33.5v-243q0 -43 11.5 -71t29.5 -44.5t39 -23t40 -6.5q41 0 73 17t53 47.5t31 72.5t8 93q-2 49 -15.5 87t-35 64t-50 40t-59.5 14zM90 630q0 19 -2.5 31.5t-11 21t-24.5 13.5t-42 9v20l150 45h10v-330h2q29 30 71 50t87 20q49 0 88 -19.5
t66 -54t41.5 -82.5t14.5 -104q0 -60 -21.5 -108t-57 -82t-81.5 -52t-95 -18q-34 0 -70.5 10t-74.5 40l-30 -45h-20v635z" />
    <glyph glyph-name="c" unicode="c" horiz-adv-x="500" 
d="M280 480q-38 0 -68 -15t-51 -41t-32 -63t-11 -80q0 -56 13.5 -98t37.5 -70.5t57.5 -43t73.5 -14.5q49 0 88 10.5t72 29.5v-30q-11 -9 -28 -22t-40 -25t-52 -20t-65 -8q-56 0 -99.5 21t-73.5 56t-46 81t-16 97q0 64 20.5 113t55 83t78.5 51.5t91 17.5q41 0 73.5 -10.5
t55 -28t34.5 -40t12 -46.5q0 -26 -17 -38t-37 -12q-17 0 -30 8t-12 24q2 27 0 48.5t-11 35.5t-26.5 21.5t-46.5 7.5z" />
    <glyph glyph-name="d" unicode="d" 
d="M285 45q38 0 70 13.5t55 33.5v243q0 43 -11.5 71t-29.5 44.5t-39 23t-40 6.5q-41 0 -73 -17t-53 -47.5t-31 -72.5t-8 -93q2 -49 15.5 -87t35 -64.5t49.5 -40t60 -13.5zM295 510q28 0 60 -7.5t55 -22.5v150q0 19 -2.5 31.5t-11 21t-24.5 13.5t-42 9v20l150 45h10v-640
q0 -26 6.5 -40.5t19 -20.5t31.5 -6t43 2v-25l-170 -50h-10v70h-2q-29 -30 -71 -50t-87 -20q-49 0 -88 19.5t-66 54t-41.5 82.5t-14.5 104q0 60 21.5 108t57 82t81.5 52t95 18z" />
    <glyph glyph-name="e" unicode="e" horiz-adv-x="500" 
d="M280 480q-65 0 -106 -41t-52 -109h247q9 39 5.5 67.5t-16.5 47t-33.5 27t-44.5 8.5zM275 -10q-56 0 -99.5 21t-73.5 56t-46 81t-16 97q0 64 20.5 113t55 83t78.5 51.5t91 17.5q36 0 71 -10.5t60.5 -35t37 -66t0.5 -103.5h-336q-3 -52 9 -96t35.5 -76t58.5 -50t79 -18
q49 0 88 10.5t72 29.5v-30q-11 -9 -28 -22t-40 -25t-52 -20t-65 -8z" />
    <glyph glyph-name="f" unicode="f" horiz-adv-x="340" 
d="M30 20q26 4 42 9t24.5 14t11 22.5t2.5 34.5v365h-70v30l70 5q6 59 31 108.5t57 85.5t65.5 56t56.5 20q29 0 40 -14.5t9.5 -31t-14 -28t-30.5 -6.5q-51 15 -78.5 9.5t-40 -30t-14.5 -67t-2 -102.5h130v-35h-130v-365q0 -21 3 -34.5t12 -22.5t27 -14t48 -9v-20h-250v20z
" />
    <glyph glyph-name="g" unicode="g" horiz-adv-x="540" 
d="M155 -15q-34 -41 -44.5 -73t-10.5 -62q0 -42 35 -66t95 -24q30 0 65 8t65 24.5t50 40.5t20 57q0 19 -9 31.5t-25 21t-38 14t-48 8.5zM135 325q5 -71 38 -110.5t82 -39.5q30 0 51 12t33.5 33t17.5 49t3 60t-10.5 59.5t-23.5 48t-35.5 32t-45.5 11.5q-55 0 -85 -42.5
t-25 -112.5zM405 438q19 -25 29.5 -47.5t10.5 -60.5q0 -43 -14.5 -77.5t-40 -58.5t-61.5 -36.5t-79 -12.5q-15 0 -37 3t-33 7q-14 -17 -25.5 -31t-11.5 -31q0 -19 16.5 -27t45.5 -11l159 -15q31 -3 58 -12.5t46.5 -24.5t30.5 -36t11 -47q0 -46 -29 -81.5t-74 -59.5
t-100 -36.5t-107 -12.5q-94 0 -137 25.5t-43 74.5q0 45 32 83.5t83 76.5q-30 4 -50 24t-20 46t22.5 51t67.5 54q-49 23 -77 63.5t-28 98.5q0 40 15 74t42 58t63.5 37.5t79.5 13.5q38 0 68.5 -9.5t56.5 -20.5l135 15v-55h-105v-2z" />
    <glyph glyph-name="h" unicode="h" horiz-adv-x="620" 
d="M120 630q0 19 -2.5 31.5t-11 21t-24.5 13.5t-42 9v20l150 45h10v-365h2q44 44 91 74.5t102 30.5q25 0 47.5 -8t40 -26t27.5 -46.5t10 -69.5v-260q0 -21 3 -34.5t12 -22.5t27 -14t48 -9v-20h-240v20q26 6 40.5 11.5t21 13.5t7.5 21t1 34v260q0 42 -18.5 66t-56.5 24
t-75.5 -16t-89.5 -59v-275q0 -21 3 -34.5t12 -22.5t27 -14t48 -9v-20h-260v20q30 4 48 9t27 14t12 22.5t3 34.5v530z" />
    <glyph glyph-name="i" unicode="i" horiz-adv-x="300" 
d="M200 100q0 -21 3 -34.5t12 -22.5t27 -14t48 -9v-20h-260v20q30 4 48 9t27 14t12 22.5t3 34.5v270q0 19 -2.5 31.5t-11 21t-24.5 13.5t-42 9v20l150 45h10v-410zM100 670q0 25 17.5 42.5t42.5 17.5t42.5 -17.5t17.5 -42.5t-17.5 -42.5t-42.5 -17.5t-42.5 17.5t-17.5 42.5z
" />
    <glyph glyph-name="j" unicode="j" horiz-adv-x="279" 
d="M99 670q0 25 17.5 42.5t42.5 17.5t42.5 -17.5t17.5 -42.5t-17.5 -42.5t-42.5 -17.5t-42.5 17.5t-17.5 42.5zM119 370q0 19 -2.5 31.5t-11 21t-24.5 13.5t-42 9v20l150 45h10v-465q0 -66 -16.5 -123t-42 -100t-55.5 -67.5t-56 -24.5q-29 0 -41.5 14.5t-12 31t11.5 28
t29 6.5q52 -15 75 -2t29 46.5t2.5 83t-3.5 107.5v325z" />
    <glyph glyph-name="k" unicode="k" 
d="M280 215q-10 10 -18 16.5t-17 10.5t-19.5 6t-25.5 2v-150q0 -21 3 -34.5t12 -22.5t27 -14t48 -9v-20h-260v20q30 4 48 9t27 14t12 22.5t3 34.5v530q0 19 -2.5 31.5t-11 21t-24.5 13.5t-42 9v20l150 45h10v-495q23 0 39 1.5t27.5 5t20.5 10.5t18 18l70 80q13 16 19 30.5
t3 26.5t-16.5 20.5t-40.5 12.5v20h215v-20q-41 -8 -67.5 -21t-47.5 -39l-115 -135l155 -185q9 -10 20.5 -22.5t25 -24t29.5 -20.5t35 -13v-20h-220v20q38 4 39 21t-34 59z" />
    <glyph glyph-name="l" unicode="l" horiz-adv-x="300" 
d="M200 100q0 -21 3 -34.5t12 -22.5t27 -14t48 -9v-20h-260v20q30 4 48 9t27 14t12 22.5t3 34.5v530q0 19 -2.5 31.5t-11 21t-24.5 13.5t-42 9v20l150 45h10v-670z" />
    <glyph glyph-name="m" unicode="m" horiz-adv-x="920" 
d="M385 510q44 0 78 -25t44 -85h3q42 53 86 81.5t99 28.5q25 0 47.5 -8t40 -26t27.5 -46.5t10 -69.5v-260q0 -21 3 -34.5t12 -22.5t27 -14t48 -9v-20h-240v20q26 6 40.5 11.5t21 13.5t7.5 21t1 34v260q0 42 -18.5 66t-56.5 24q-19 0 -36.5 -3.5t-35.5 -11.5t-38.5 -23
t-44.5 -37v-275q0 -21 3 -34.5t12 -22.5t27 -14t48 -9v-20h-240v20q26 6 40.5 11.5t21 13.5t7.5 21t1 34v260q0 42 -18.5 66t-56.5 24q-19 0 -36.5 -3.5t-35.5 -11.5t-38.5 -23t-44.5 -37v-275q0 -21 3 -34.5t12 -22.5t27 -14t48 -9v-20h-260v20q30 4 48 9t27 14t12 22.5
t3 34.5v270q0 19 -2.5 31.5t-11 21t-24.5 13.5t-42 9v20l155 45h8l-3 -105h2q44 49 86 77t97 28z" />
    <glyph glyph-name="n" unicode="n" horiz-adv-x="620" 
d="M30 20q30 4 48 9t27 14t12 22.5t3 34.5v270q0 19 -2.5 31.5t-11 21t-24.5 13.5t-42 9v20l155 45h8l-3 -105h2q44 44 91 74.5t102 30.5q25 0 47.5 -8t40 -26t27.5 -46.5t10 -69.5v-260q0 -21 3 -34.5t12 -22.5t27 -14t48 -9v-20h-240v20q26 6 40.5 11.5t21 13.5t7.5 21
t1 34v260q0 42 -18.5 66t-56.5 24t-75.5 -16t-89.5 -59v-275q0 -21 3 -34.5t12 -22.5t27 -14t48 -9v-20h-260v20z" />
    <glyph glyph-name="o" unicode="o" horiz-adv-x="562" 
d="M41 250q1 54 19.5 101.5t51 82.5t76.5 55.5t97 20.5q52 0 96 -20.5t75.5 -55.5t48.5 -82.5t16 -101.5t-20 -101.5t-51.5 -82.5t-77 -55.5t-96.5 -20.5q-53 0 -96.5 20.5t-74.5 55.5t-48 82.5t-16 101.5zM131 250q0 -113 40 -171.5t110 -58.5t110 58.5t40 171.5t-40 171.5
t-110 58.5t-110 -58.5t-40 -171.5z" />
    <glyph glyph-name="p" unicode="p" 
d="M192 440q29 30 71 50t87 20q49 0 88 -19.5t66 -54t41.5 -82.5t14.5 -104q0 -60 -21.5 -108t-57 -82t-81.5 -52t-95 -18q-28 0 -60 7.5t-55 22.5v-180q0 -21 3 -34.5t12 -22.5t27 -14t48 -9v-20h-250v20q26 4 42 9t24.5 14t11 22.5t2.5 34.5v530q0 19 -2.5 31.5t-11 21
t-24.5 13.5t-42 9v20l155 45h8l-3 -70h2zM315 455q-38 0 -70 -13.5t-55 -33.5v-243q0 -43 11.5 -71t29.5 -44.5t39 -23t40 -6.5q41 0 73 17t53 47.5t31 72.5t8 93q-2 49 -15.5 87t-35 64t-50 40t-59.5 14z" />
    <glyph glyph-name="q" unicode="q" horiz-adv-x="570" 
d="M285 45q38 0 70 13.5t55 33.5v243q0 43 -11.5 71t-29.5 44.5t-39 23t-40 6.5q-41 0 -73 -17t-53 -47.5t-31 -72.5t-8 -93q2 -49 15.5 -87t35 -64.5t49.5 -40t60 -13.5zM410 60h-2q-29 -30 -71 -50t-87 -20q-49 0 -88 19.5t-66 54t-41.5 82.5t-14.5 104q0 60 21.5 108
t57 82t81.5 52t95 18q34 0 70.5 -10t74.5 -40l30 45h20v-665q0 -21 2.5 -34.5t11 -22.5t24.5 -14t42 -9v-20h-250v20q30 4 48 9t27 14t12 22.5t3 34.5v220z" />
    <glyph glyph-name="r" unicode="r" horiz-adv-x="435" 
d="M365 420q-44 19 -85.5 3t-79.5 -58v-265q0 -21 3 -34.5t12 -22.5t27 -14t48 -9v-20h-260v20q30 4 48 9t27 14t12 22.5t3 34.5v270q0 19 -2.5 31.5t-11 21t-24.5 13.5t-42 9v20l155 45h8l-3 -115h2q14 21 32 41.5t38.5 37t42.5 26.5t45 10q32 0 44 -17.5t10 -36.5
t-15.5 -32t-33.5 -4z" />
    <glyph glyph-name="s" unicode="s" horiz-adv-x="430" 
d="M340 350q-4 30 -16 54t-30 41t-39.5 26t-44.5 9q-45 0 -70 -21t-25 -59q0 -24 10 -41t26.5 -28.5t37 -20t41.5 -15.5q28 -10 55.5 -23t49.5 -31t36 -42.5t14 -58.5q0 -36 -15 -63.5t-39.5 -47t-57 -29.5t-68.5 -10q-38 0 -79 10t-71 25l-10 135h25q4 -43 18.5 -70.5
t34 -43t41.5 -21t41 -5.5q46 0 73 26.5t27 68.5q0 24 -10.5 41t-28 29.5t-39 21.5t-42.5 18q-29 12 -54.5 24.5t-44.5 30t-30 40.5t-11 55q0 30 12 55t34.5 42.5t53.5 27.5t70 10q35 0 72.5 -8.5t67.5 -22.5l10 -129h-25z" />
    <glyph glyph-name="t" unicode="t" horiz-adv-x="380" 
d="M180 120q0 -24 7 -38t18 -21t25.5 -9t29.5 -2t44.5 3.5t55.5 11.5v-15q-38 -30 -80 -45t-80 -15q-53 0 -76.5 28t-23.5 92v355h-70v30l70 15l60 140h20v-150h150v-35h-150v-345z" />
    <glyph glyph-name="u" unicode="u" 
d="M410 95h-2q-22 -23 -43 -42t-43 -33t-46 -22t-51 -8q-25 0 -47.5 8t-40 26t-27.5 46.5t-10 69.5v265q0 19 -2.5 31.5t-11 21t-24.5 13.5t-42 9v20h160v-360q0 -42 18.5 -66t56.5 -24q19 0 36 3.5t34.5 11.5t38 22.5t46.5 37.5v280q0 19 -3 31.5t-12 21t-27 13.5t-48 9v20
h170v-370q0 -26 6.5 -40.5t19 -20.5t31.5 -6t43 2v-25l-170 -50h-10v105z" />
    <glyph glyph-name="v" unicode="v" horiz-adv-x="570" 
d="M85 420q-6 12 -11 21t-13 15.5t-20 12t-31 11.5v20h240v-20q-30 -4 -46 -11.5t-22 -18.5t-3 -26t11 -34l124 -300h2l114 300q14 38 -1 60t-69 30v20h200v-20q-18 -4 -30.5 -8t-21.5 -10.5t-15.5 -16.5t-12.5 -25l-160 -405l-30 -20h-20z" />
    <glyph glyph-name="w" unicode="w" horiz-adv-x="860" 
d="M407 420q-5 13 -10.5 21.5t-14 15.5t-21 12t-31.5 11v20h240v-20q-30 -4 -45.5 -11t-21 -18.5t-3 -26.5t9.5 -34l94 -300h2l114 300q14 38 -1 60t-69 30v20h200v-20q-18 -4 -30.5 -8t-21.5 -10.5t-15.5 -16.5t-12.5 -25l-160 -405l-35 -20h-20l-115 350l-140 -330
l-35 -20h-20l-160 425q-5 13 -10 21.5t-13.5 15.5t-20.5 12t-31 11v20h240v-20q-30 -4 -45.5 -11t-21 -18.5t-3 -26.5t9.5 -34l104 -300h2l124 295z" />
    <glyph glyph-name="x" unicode="x" horiz-adv-x="560" 
d="M125 420q-17 26 -37 39t-58 21v20h230v-20q-23 -4 -32.5 -12t-9.5 -19.5t7.5 -26.5t19.5 -32l54 -81l63 81q12 16 20 30.5t8 26.5t-11.5 20.5t-38.5 12.5v20h185v-20q-20 -4 -35 -9t-27 -12t-21.5 -16.5t-19.5 -22.5l-105 -138l128 -202q16 -26 36.5 -37.5t58.5 -22.5
v-20h-240v20q26 4 37.5 12t12 19.5t-6.5 26.5t-18 32l-64 101l-74 -101q-12 -16 -21 -30.5t-9.5 -26.5t10 -20.5t37.5 -12.5v-20h-184v20q41 8 64.5 21t42.5 39l117 158z" />
    <glyph glyph-name="y" unicode="y" horiz-adv-x="570" 
d="M85 420q-6 12 -11 21t-13 15.5t-20 12t-31 11.5v20h240v-20q-30 -4 -46 -11.5t-22 -18.5t-3 -26t11 -34l124 -300h2l114 300q14 38 -1 60t-69 30v20h200v-20q-18 -4 -30.5 -8t-21.5 -10.5t-15.5 -16.5t-12.5 -25l-170 -430q-29 -73 -63.5 -121.5t-69 -78.5t-66 -43.5
t-54.5 -16.5q-29 -4 -42 10t-14.5 31.5t8.5 30.5t28 8q52 -15 91.5 -1.5t68 43t47.5 67.5t31 71z" />
    <glyph glyph-name="z" unicode="z" horiz-adv-x="480" 
d="M340 30q42 0 62 29.5t28 90.5h20l-10 -150h-410v30l310 440h-185q-42 0 -59.5 -29.5t-25.5 -90.5h-20l5 150h380v-30l-310 -440h215z" />
    <glyph glyph-name="braceleft" unicode="{" horiz-adv-x="430" 
d="M380 830q-30 -1 -56 -5.5t-45 -17t-30.5 -34.5t-13.5 -57q-1 -10 0.5 -33t3.5 -53t4 -63.5t4 -64t2.5 -54.5t-0.5 -34q-3 -31 -17 -52t-32.5 -35t-40 -23t-40.5 -16v-1q19 -8 40.5 -17t40 -23t32.5 -35t17 -53q1 -10 0.5 -33t-2.5 -52t-4 -61.5t-4 -61.5t-3 -51.5
t-1 -31.5q2 -35 13.5 -54.5t31 -29.5t45 -13t55.5 -6v-25q-56 0 -99 4t-71.5 19t-43 44.5t-14.5 80.5q0 26 5 63t10 77t8.5 77.5t-0.5 64.5q-3 28 -12 46t-24 28.5t-37 16t-52 9.5v33q30 6 52 12t37 16.5t24 27.5t12 46q4 27 0.5 66t-8.5 80.5t-10 80t-5 64.5q0 51 14.5 82
t43 48.5t71.5 23t99 5.5v-25z" />
    <glyph glyph-name="bar" unicode="|" horiz-adv-x="235" 
d="M100 820h35v-920h-35v920z" />
    <glyph glyph-name="braceright" unicode="}" horiz-adv-x="430" 
d="M50 -234q30 1 56 5.5t45 17t30.5 34.5t13.5 57q0 9 -1 32.5t-3 53.5t-4 63.5t-4 64t-2.5 54t0.5 34.5q3 31 16.5 52t32.5 35t40.5 22.5t40.5 16.5v1q-19 8 -40.5 17t-40.5 23t-32.5 35t-16.5 53q-1 10 -0.5 33t2.5 52t4 61.5t4 61.5t3 51t1 32q-2 35 -13.5 54.5t-31 29.5
t-45 13t-55.5 6v25q56 0 99 -4t71.5 -19t43 -44.5t14.5 -80.5q0 -26 -5 -63.5t-10.5 -77t-8.5 -77t1 -64.5q3 -29 12 -46.5t24 -28t37 -16t52 -9.5v-33q-30 -6 -52 -12t-37 -16.5t-24 -28t-12 -45.5q-4 -27 -1 -66t8.5 -80.5t10.5 -80t5 -64.5q0 -51 -14.5 -82t-43 -48.5
t-71.5 -23t-99 -5.5v25z" />
    <glyph glyph-name="asciitilde" unicode="~" horiz-adv-x="550" 
d="M100 330q8 16 18 35.5t22.5 36t27.5 27.5t32 11q15 0 36.5 -6.5t44 -14t43.5 -13.5t36 -6q26 0 41.5 7t33.5 33l15 -10q-8 -16 -17.5 -33.5t-21 -32.5t-25.5 -24.5t-31 -9.5q-18 0 -39 6t-43.5 13.5t-43.5 14t-39 6.5q-27 0 -41 -10.5t-34 -39.5z" />
    <glyph glyph-name="uni00A0" unicode="&#xa0;" horiz-adv-x="230" 
 />
    <glyph glyph-name="exclamdown" unicode="&#xa1;" horiz-adv-x="320" 
d="M100 490q0 25 17.5 42.5t42.5 17.5t42.5 -17.5t17.5 -42.5t-17.5 -42.5t-42.5 -17.5t-42.5 17.5t-17.5 42.5zM171 340l41 -502q1 -10 0 -21.5t-6 -22t-15.5 -17.5t-29.5 -7t-30 7t-17 17.5t-7.5 22t-0.5 21.5l45 502h20z" />
    <glyph glyph-name="cent" unicode="&#xa2;" horiz-adv-x="540" 
d="M280 -9q-53 3 -93.5 24.5t-69 56t-43 79.5t-14.5 94q0 59 18 106t48.5 80.5t70 53t83.5 24.5v91h35v-90q39 -2 69.5 -13t51.5 -28t32.5 -39t11.5 -45q0 -26 -17 -38t-37 -12q-17 0 -30 8t-12 24q3 51 -9.5 79.5t-59.5 32.5v-424q53 0 92.5 10.5t72.5 29.5v-30
q-11 -9 -26 -20.5t-35.5 -22.5t-46.5 -19.5t-57 -11.5v-91h-35v91zM138 281q0 -97 39 -153t103 -69v420q-33 -4 -59.5 -20.5t-44.5 -42.5t-28 -60.5t-10 -74.5z" />
    <glyph glyph-name="sterling" unicode="&#xa3;" horiz-adv-x="637" 
d="M164 345q-9 45 -17.5 89t-6.5 88q1 37 16.5 71t44 60t69.5 41.5t92 15.5q41 0 73.5 -11.5t55 -29.5t34 -41.5t10.5 -47.5q-1 -26 -18.5 -38t-37.5 -12q-17 0 -29.5 8t-11.5 24q3 27 1.5 48.5t-10 35.5t-25.5 21.5t-46 7.5q-63 0 -96.5 -34t-35.5 -91q-2 -56 2.5 -106.5
t6.5 -98.5h155v-35h-154q0 -35 -4 -69t-15.5 -67t-32.5 -65.5t-54 -64.5l1 -2q57 25 101 30.5t80 0t65.5 -16t56.5 -16.5q19 -4 36 -4t32 10t27.5 32t22.5 62h25q-3 -11 -8 -30t-14 -41t-23.5 -44t-36.5 -38t-52 -23.5t-70 -0.5q-18 3 -49.5 17t-71 25t-86.5 13.5t-96 -18.5
l-10 25q45 33 70 67.5t36 70.5t10.5 72.5t-6.5 74.5h-90v35h84z" />
    <glyph glyph-name="currency" unicode="&#xa4;" horiz-adv-x="513" 
d="M100 249q0 34 12.5 63t35.5 51l-78 90l8 8l79 -90q20 17 45.5 26.5t54.5 9.5q28 0 53.5 -9.5t45.5 -26.5l78 90l9 -8l-78 -89q23 -22 36.5 -51.5t13.5 -63.5t-13 -63.5t-36 -50.5l76 -86l-9 -9l-77 87q-20 -17 -45.5 -26t-53.5 -9q-29 0 -54.5 9t-45.5 26l-76 -87l-9 9
l76 86q-23 22 -35.5 51t-12.5 63zM112 249q0 -30 11.5 -56t31.5 -46t46 -31.5t56 -11.5t56.5 11.5t46.5 31.5t31.5 46t11.5 56t-11.5 56.5t-31.5 46.5t-46.5 31.5t-56.5 11.5t-56 -11.5t-46 -31.5t-31.5 -46.5t-11.5 -56.5z" />
    <glyph glyph-name="yen" unicode="&#xa5;" horiz-adv-x="740" 
d="M435 275h140v-35h-150v-140q0 -21 3 -34.5t12 -22.5t27 -14t48 -9v-20h-260v20q30 4 48 9t27 14t12 22.5t3 34.5v140h-150v35h137l-197 345q-13 24 -29 36.5t-46 23.5v20h240v-20q-30 -4 -44 -11.5t-17.5 -19t2 -26.5t14.5 -33l154 -280h2l124 275q17 37 7.5 62t-62.5 33
v20h200v-20q-18 -4 -31.5 -8.5t-24 -11t-18.5 -16.5t-16 -24z" />
    <glyph glyph-name="brokenbar" unicode="&#xa6;" horiz-adv-x="235" 
d="M135 460h-35v360h35v-360zM135 -100h-35v360h35v-360z" />
    <glyph glyph-name="section" unicode="&#xa7;" horiz-adv-x="565" 
d="M280 20q46 0 73 26.5t27 68.5q0 24 -10.5 41t-28 29.5t-39 21.5t-42.5 18q-29 12 -54.5 24.5t-44.5 30t-30 40.5t-11 55q0 62 48 99q-23 18 -35.5 42t-12.5 59q0 30 12 55t34.5 42.5t53.5 27.5t70 10q41 0 73.5 -10.5t55 -28t34.5 -40t12 -46.5q0 -26 -17 -38t-37 -12
q-17 0 -30 8t-12 24q2 27 0 48.5t-11 35.5t-26.5 21.5t-46.5 7.5q-45 0 -70 -21t-25 -59q0 -24 10 -41t26.5 -28.5t37 -20t41.5 -15.5q28 -10 55.5 -23t49.5 -31t36 -42.5t14 -58.5q0 -32 -12 -58t-33 -45q20 -18 32.5 -41.5t12.5 -55.5q0 -36 -15.5 -63.5t-41.5 -47
t-59 -29.5t-69 -10q-41 0 -73.5 10.5t-55 28t-34.5 40t-12 46.5q0 26 17 38t37 12q17 0 30 -8t12 -24q-2 -27 0 -48.5t11 -35.5t26.5 -21.5t46.5 -7.5zM260 425q-15 6 -28.5 11.5t-26.5 12.5q-15 -20 -15 -49q0 -24 10 -41t26.5 -28.5t37 -20t41.5 -15.5q16 -6 32 -12.5
t31 -14.5q12 21 12 47q0 24 -10.5 41t-28 29.5t-39 21.5t-42.5 18z" />
    <glyph glyph-name="dieresis" unicode="&#xa8;" horiz-adv-x="500" 
d="M100 615q0 24 15 39t38 15t38 -15t15 -39q0 -23 -15 -37.5t-38 -14.5t-38 14.5t-15 37.5zM294 615q0 24 15 39t38 15t38 -15t15 -39q0 -23 -15 -37.5t-38 -14.5t-38 14.5t-15 37.5z" />
    <glyph glyph-name="copyright" unicode="&#xa9;" horiz-adv-x="920" 
d="M100 350q0 75 28.5 140.5t77 114t114 77t140.5 28.5t140.5 -28.5t114 -77t77 -114t28.5 -140.5t-28.5 -140.5t-77 -114t-114 -77t-140.5 -28.5t-140.5 28.5t-114 77t-77 114t-28.5 140.5zM136 350q0 -67 25.5 -126t69.5 -103t103 -69.5t126 -25.5t126 25.5t103 69.5
t69.5 103t25.5 126t-25.5 126t-69.5 103t-103 69.5t-126 25.5t-126 -25.5t-103 -69.5t-69.5 -103t-25.5 -126zM473 196q31 0 50.5 8.5t31 22.5t17.5 31t11 35h14l-7 -82q-17 -11 -44.5 -23.5t-72.5 -12.5q-29 0 -57.5 8.5t-51.5 28t-37 51t-14 78.5q0 46 14 78t37 51.5
t51.5 28t57.5 8.5q45 0 72.5 -12.5t44.5 -23.5l7 -82h-14q-5 18 -13 35t-20.5 31t-31 22.5t-45.5 8.5q-20 0 -39.5 -7t-34.5 -23.5t-24 -44.5t-9 -70t9 -70t24 -44.5t34.5 -23.5t39.5 -7z" />
    <glyph glyph-name="ordfeminine" unicode="&#xaa;" horiz-adv-x="385" 
d="M266 481q0 -18 3.5 -27t11 -12.5t19 -2.5t25.5 3v-9q-26 -20 -42 -28t-29 -8q-23 0 -29.5 15.5t-6.5 32.5h-1q-25 -21 -46.5 -34.5t-48.5 -13.5q-26 0 -44 20.5t-18 51.5q0 28 19.5 43.5t54.5 23.5l87 15l1 62q1 35 -18 52.5t-46 17.5q-20 0 -31.5 -7t-16.5 -16.5
t-3.5 -19t7.5 -15.5q9 -9 4.5 -17.5t-14.5 -14t-20.5 -6t-13.5 7.5q-7 14 -1 33.5t22.5 37.5t43 31t59.5 13q36 0 56 -21.5t20 -60.5zM220 536l-77 -19q-45 -11 -39 -50q3 -20 14 -28.5t23 -8.5q20 0 35.5 6.5t41.5 24.5z" />
    <glyph glyph-name="guillemotleft" unicode="&#xab;" horiz-adv-x="730" 
d="M206 269l174 -156v-40l-280 185v20l280 185v-40zM456 269l174 -156v-40l-280 185v20l280 185v-40z" />
    <glyph glyph-name="logicalnot" unicode="&#xac;" horiz-adv-x="597" 
d="M497 88h-35v162h-362v35h397v-197z" />
    <glyph glyph-name="uni00AD" unicode="&#xad;" horiz-adv-x="560" 
d="M460 285v-35h-360v35h360z" />
    <glyph glyph-name="registered" unicode="&#xae;" horiz-adv-x="920" 
d="M100 350q0 75 28.5 140.5t77 114t114 77t140.5 28.5t140.5 -28.5t114 -77t77 -114t28.5 -140.5t-28.5 -140.5t-77 -114t-114 -77t-140.5 -28.5t-140.5 28.5t-114 77t-77 114t-28.5 140.5zM136 350q0 -67 25.5 -126t69.5 -103t103 -69.5t126 -25.5t126 25.5t103 69.5
t69.5 103t25.5 126t-25.5 126t-69.5 103t-103 69.5t-126 25.5t-126 -25.5t-103 -69.5t-69.5 -103t-25.5 -126zM440 318h-32v-78q0 -12 1.5 -20.5t7 -13.5t16 -8t27.5 -6v-10h-153v10q18 3 28.5 6t16 8t7 13.5t1.5 20.5v202q0 12 -1.5 20t-7 13.5t-16 8.5t-28.5 6v10h153
q68 0 103 -20.5t35 -69.5q0 -30 -24.5 -55t-74.5 -34l48 -57q15 -19 26.5 -30.5t21.5 -19t18.5 -12.5t19.5 -10v-10h-74q-15 9 -24 18.5t-20 22.5zM431 336q59 0 87.5 19.5t28.5 54.5t-22 53t-76 18h-41v-145h23z" />
    <glyph glyph-name="macron" unicode="&#xaf;" horiz-adv-x="510" 
d="M410 635v-35h-310v35h310z" />
    <glyph glyph-name="degree" unicode="&#xb0;" horiz-adv-x="375" 
d="M100 673q0 37 25 62.5t62 25.5t62.5 -25.5t25.5 -62.5t-25.5 -62t-62.5 -25t-62 25t-25 62zM130 673q0 -24 16.5 -40.5t40.5 -16.5q25 0 41.5 16.5t16.5 40.5q0 25 -16.5 41.5t-41.5 16.5q-24 0 -40.5 -16.5t-16.5 -41.5z" />
    <glyph glyph-name="plusminus" unicode="&#xb1;" horiz-adv-x="560" 
d="M262 115v135h-162v35h162v163h35v-163h163v-35h-163v-135h163v-35h-360v35h162z" />
    <glyph glyph-name="uni00B2" unicode="&#xb2;" horiz-adv-x="400" 
d="M65 534q66 46 104.5 84t58 69t25 56t5.5 45q0 36 -13 62t-45 26q-28 0 -39 -12.5t-9 -45.5q1 -10 -7 -18.5t-24 -8.5q-20 0 -30 10t-10 26q0 29 30.5 52t94.5 23q31 0 54.5 -9.5t39.5 -24.5t24 -34t8 -39q0 -18 -5 -40t-24.5 -49.5t-57.5 -61.5t-103 -77h193v-57h-270v24
z" />
    <glyph glyph-name="uni00B3" unicode="&#xb3;" horiz-adv-x="400" 
d="M180 500q-55 0 -86.5 23t-31.5 52q0 16 10 26t30 10q17 0 24.5 -8t7.5 -17q-2 -33 10.5 -46.5t38.5 -13.5q75 0 75 92q0 38 -19.5 59.5t-60.5 21.5h-22v25h12q37 0 58 21.5t21 65.5q0 37 -18 51t-40 14q-28 0 -37 -12.5t-7 -45.5q1 -10 -7 -18.5t-24 -8.5q-20 0 -30 10
t-10 26q0 29 30 52t91 23q57 0 90.5 -24.5t33.5 -64.5q0 -35 -24 -62t-67 -37v-1q21 -3 40.5 -9.5t34.5 -18t24 -29t9 -41.5q0 -29 -12 -50.5t-33 -36t-49.5 -21.5t-61.5 -7z" />
    <glyph glyph-name="acute" unicode="&#xb4;" horiz-adv-x="369" 
d="M110 550l-10 9l95 148q13 19 31 19t30 -11.5t13 -29t-20 -32.5z" />
    <glyph glyph-name="mu" unicode="&#xb5;" 
d="M410 95h-2q-22 -23 -43 -42t-43 -33t-46 -22t-51 -8q-24 0 -48 8q-6 -57 -24 -106t-42 -85t-50.5 -56.5t-50.5 -20.5q-29 0 -41.5 14.5t-12 31t11.5 28t29 6.5q52 -15 75 -2t29 46.5t2.5 83t-3.5 107.5v360q0 19 -2.5 31.5t-11 21t-24.5 13.5t-42 9v20h160v-360
q0 -42 18.5 -66t56.5 -24q19 0 36 3.5t34.5 11.5t38 22.5t46.5 37.5v280q0 19 -3 31.5t-12 21t-27 13.5t-48 9v20h170v-370q0 -26 6.5 -40.5t19 -20.5t31.5 -6t43 2v-25l-170 -50h-10v105z" />
    <glyph glyph-name="paragraph" unicode="&#xb6;" horiz-adv-x="670" 
d="M330 300q-60 0 -103.5 18.5t-71.5 48.5t-41.5 67.5t-13.5 75.5q0 41 14 76t39.5 60.5t60.5 39.5t76 14h90v-700h-140v20q30 4 48 9t27 14t12 22.5t3 34.5v200zM430 700h140v-20q-30 -4 -48 -9t-27 -14t-12 -22.5t-3 -34.5v-500q0 -21 3 -34.5t12 -22.5t27 -14t48 -9v-20
h-140v700z" />
    <glyph glyph-name="periodcentered" unicode="&#xb7;" horiz-adv-x="356" 
d="M100 248q0 32 23 55t55 23t55 -23t23 -55t-23 -55t-55 -23t-55 23t-23 55z" />
    <glyph glyph-name="cedilla" unicode="&#xb8;" horiz-adv-x="372" 
d="M170 0v-40q0 -14 16 -17.5t35 -9t34.5 -19t15.5 -46.5q0 -24 -15.5 -43t-38.5 -33.5t-51.5 -23.5t-55.5 -13l-10 25q11 4 29 8.5t35 13t29 21t12 32.5t-10.5 28t-23.5 15t-23 17.5t-8 34.5l3 50h27z" />
    <glyph glyph-name="uni00B9" unicode="&#xb9;" horiz-adv-x="400" 
d="M162 819q0 25 -19 30.5t-66 5.5v15l154 36h7v-333q0 -25 22.5 -34t72.5 -14v-15h-266v15q50 5 72.5 14t22.5 34v246z" />
    <glyph glyph-name="ordmasculine" unicode="&#xba;" horiz-adv-x="407" 
d="M61 552q1 33 12 62t30 50t45 33.5t57 12.5q32 0 58 -12.5t45 -33.5t29 -50t9 -62q-1 -32 -12 -60t-30 -49t-45.5 -33.5t-57.5 -12.5q-32 0 -58 12.5t-44.5 33.5t-28.5 49t-9 60zM114 552q0 -66 24 -100.5t66 -34.5t65.5 34.5t23.5 100.5q0 68 -23.5 104t-65.5 36t-66 -36
t-24 -104z" />
    <glyph glyph-name="guillemotright" unicode="&#xbb;" horiz-adv-x="730" 
d="M100 423v40l280 -185v-20l-280 -185v40l174 156zM350 423v40l280 -185v-20l-280 -185v40l174 156z" />
    <glyph glyph-name="onequarter" unicode="&#xbc;" horiz-adv-x="900" 
d="M612 710l-240 -720h-30l241 720h29zM145 619q0 25 -19 30.5t-66 5.5v15l154 36h7v-333q0 -25 22.5 -34t72.5 -14v-15h-266v15q50 5 72.5 14t22.5 34v246zM721 132v193l-157 -193h157zM850 84h-55v-84h-74v84h-181v58l207 254h48v-264h55v-48z" />
    <glyph glyph-name="onehalf" unicode="&#xbd;" horiz-adv-x="900" 
d="M602 710l-240 -720h-30l241 720h29zM145 619q0 25 -19 30.5t-66 5.5v15l154 36h7v-333q0 -25 22.5 -34t72.5 -14v-15h-266v15q50 5 72.5 14t22.5 34v246zM580 24q66 46 104.5 84t58 69t25 56t5.5 45q0 36 -13 62t-45 26q-28 0 -39 -12.5t-9 -45.5q1 -10 -7 -18.5
t-24 -8.5q-20 0 -30 10t-10 26q0 29 30.5 52t94.5 23q31 0 54.5 -9.5t39.5 -24.5t24 -34t8 -39q0 -18 -5 -40t-24.5 -49.5t-57.5 -61.5t-103 -77h193v-57h-270v24z" />
    <glyph glyph-name="threequarters" unicode="&#xbe;" horiz-adv-x="900" 
d="M612 710l-240 -720h-30l241 720h29zM721 132v193l-157 -193h157zM850 84h-55v-84h-74v84h-181v58l207 254h48v-264h55v-48zM168 300q-55 0 -86.5 23t-31.5 52q0 16 10 26t30 10q17 0 24.5 -8t7.5 -17q-2 -33 10.5 -46.5t38.5 -13.5q75 0 75 92q0 38 -19.5 59.5
t-60.5 21.5h-22v25h12q37 0 58 21.5t21 65.5q0 37 -18 51t-40 14q-28 0 -37 -12.5t-7 -45.5q1 -10 -7 -18.5t-24 -8.5q-20 0 -30 10t-10 26q0 29 30 52t91 23q57 0 90.5 -24.5t33.5 -64.5q0 -35 -24 -62t-67 -37v-1q21 -3 40.5 -9.5t34.5 -18t24 -29t9 -41.5
q0 -29 -12 -50.5t-33 -36t-49.5 -21.5t-61.5 -7z" />
    <glyph glyph-name="questiondown" unicode="&#xbf;" horiz-adv-x="449" 
d="M130 -10q0 -28 21 -48t50.5 -35.5t61.5 -27.5t53 -23q26 -14 31 -34.5t-6 -35.5t-36 -17.5t-58 21.5q-18 13 -43.5 35.5t-48.5 52t-39 63t-16 69.5q0 26 4 47t14.5 39t28.5 33.5t45 30.5q22 12 37 23.5t22.5 30.5t7 48.5t-8.5 77.5h25q20 -33 34 -67.5t14 -66.5
t-18.5 -60.5t-63.5 -47.5q-21 -9 -40.5 -18t-35.5 -21t-25.5 -28.5t-9.5 -40.5zM320 490q0 -25 -17.5 -42.5t-42.5 -17.5t-42.5 17.5t-17.5 42.5t17.5 42.5t42.5 17.5t42.5 -17.5t17.5 -42.5z" />
    <glyph glyph-name="Agrave" unicode="&#xc0;" horiz-adv-x="700" 
d="M203 853q-21 15 -20 32.5t13 29t30 11.5t31 -19l95 -148l-10 -9zM605 80q5 -13 10.5 -21.5t14.5 -15.5t23 -12t37 -11v-20h-260v20q30 4 47 11t24 18t6 26t-7 35l-47 130h-250l-38 -115q-8 -23 -10 -40.5t5 -30.5t23.5 -21.5t46.5 -12.5v-20h-220v20q26 4 43 8t28 10.5
t17.5 16.5t11.5 25l215 625h50zM324 600l-109 -325h225l-114 325h-2z" />
    <glyph glyph-name="Aacute" unicode="&#xc1;" horiz-adv-x="700" 
d="M351 750l-10 9l95 148q13 19 31 19t30 -11.5t13 -29t-20 -32.5zM605 80q5 -13 10.5 -21.5t14.5 -15.5t23 -12t37 -11v-20h-260v20q30 4 47 11t24 18t6 26t-7 35l-47 130h-250l-38 -115q-8 -23 -10 -40.5t5 -30.5t23.5 -21.5t46.5 -12.5v-20h-220v20q26 4 43 8t28 10.5
t17.5 16.5t11.5 25l215 625h50zM324 600l-109 -325h225l-114 325h-2z" />
    <glyph glyph-name="Acircumflex" unicode="&#xc2;" horiz-adv-x="700" 
d="M236 750h-20l125 180h20l125 -180h-20l-115 95zM605 80q5 -13 10.5 -21.5t14.5 -15.5t23 -12t37 -11v-20h-260v20q30 4 47 11t24 18t6 26t-7 35l-47 130h-250l-38 -115q-8 -23 -10 -40.5t5 -30.5t23.5 -21.5t46.5 -12.5v-20h-220v20q26 4 43 8t28 10.5t17.5 16.5t11.5 25
l215 625h50zM324 600l-109 -325h225l-114 325h-2z" />
    <glyph glyph-name="Atilde" unicode="&#xc3;" horiz-adv-x="700" 
d="M175 780q8 16 18 35.5t22.5 36t27.5 27.5t32 11q15 0 36.5 -6.5t44 -14t43.5 -13.5t36 -6q26 0 41.5 7t33.5 33l15 -10q-8 -16 -17.5 -33.5t-21 -32.5t-25.5 -24.5t-31 -9.5q-18 0 -39 6t-43.5 13.5t-43.5 14t-39 6.5q-27 0 -41 -10.5t-34 -39.5zM605 80
q5 -13 10.5 -21.5t14.5 -15.5t23 -12t37 -11v-20h-260v20q30 4 47 11t24 18t6 26t-7 35l-47 130h-250l-38 -115q-8 -23 -10 -40.5t5 -30.5t23.5 -21.5t46.5 -12.5v-20h-220v20q26 4 43 8t28 10.5t17.5 16.5t11.5 25l215 625h50zM324 600l-109 -325h225l-114 325h-2z" />
    <glyph glyph-name="Adieresis" unicode="&#xc4;" horiz-adv-x="700" 
d="M199 815q0 24 15 39t38 15t38 -15t15 -39q0 -23 -15 -37.5t-38 -14.5t-38 14.5t-15 37.5zM393 815q0 24 15 39t38 15t38 -15t15 -39q0 -23 -15 -37.5t-38 -14.5t-38 14.5t-15 37.5zM605 80q5 -13 10.5 -21.5t14.5 -15.5t23 -12t37 -11v-20h-260v20q30 4 47 11t24 18t6 26
t-7 35l-47 130h-250l-38 -115q-8 -23 -10 -40.5t5 -30.5t23.5 -21.5t46.5 -12.5v-20h-220v20q26 4 43 8t28 10.5t17.5 16.5t11.5 25l215 625h50zM324 600l-109 -325h225l-114 325h-2z" />
    <glyph glyph-name="Aring" unicode="&#xc5;" horiz-adv-x="700" 
d="M262 782q0 37 25 62.5t62 25.5t62.5 -25.5t25.5 -62.5q0 -29 -17 -51.5t-43 -31.5l228 -619q5 -13 10.5 -21.5t14.5 -15.5t23 -12t37 -11v-20h-260v20q30 4 47 11t24 18t6 26t-7 35l-47 130h-250l-38 -115q-8 -23 -10 -40.5t5 -30.5t23.5 -21.5t46.5 -12.5v-20h-220v20
q26 4 43 8t28 10.5t17.5 16.5t11.5 25l213 619q-27 8 -44 30.5t-17 52.5zM324 600l-109 -325h225l-114 325h-2zM292 782q0 -24 16.5 -40.5t40.5 -16.5q25 0 41.5 16.5t16.5 40.5q0 25 -16.5 41.5t-41.5 16.5q-24 0 -40.5 -16.5t-16.5 -41.5z" />
    <glyph glyph-name="AE" unicode="&#xc6;" horiz-adv-x="880" 
d="M465 700h355l5 -160h-25q-8 61 -38 93t-87 32h-145v-295h60q49 0 75 20t33 80h25v-235h-25q-7 60 -33 80t-75 20h-60v-300h155q57 0 89.5 32t40.5 93h25l-10 -160h-470v20q30 4 48 9t27 14t12 22.5t3 34.5v235h-149l-112 -210q-13 -23 -19 -40.5t-2.5 -30.5t18.5 -21.5
t44 -12.5v-20h-220v20q27 4 45 8t30 10.5t21 16.5t18 25zM448 607l-129 -237h131v237h-2z" />
    <glyph glyph-name="Ccedilla" unicode="&#xc7;" horiz-adv-x="640" 
d="M380 25q45 0 80 14.5t60 38t41 53t24 59.5h25l-10 -140q-15 -9 -37 -19.5t-50 -19.5t-61.5 -15t-70.5 -6v-30q0 -14 16 -17.5t35 -9t34.5 -19t15.5 -46.5q0 -24 -15.5 -43t-38.5 -33.5t-51.5 -23.5t-55.5 -13l-10 25q11 4 29 8.5t35 13t29 21t12 32.5t-10.5 28t-23.5 15
t-23 17.5t-8 34.5l2 41q-66 5 -121.5 33.5t-96 76t-63 111t-22.5 138.5q0 79 25 145t69.5 114t104.5 74.5t131 26.5q37 0 70.5 -6t62 -15t50.5 -19.5t37 -19.5l10 -140h-25q-8 30 -24 59.5t-41 53t-60 38t-80 14.5q-52 0 -96 -24t-76 -67t-50 -103t-18 -131t18 -131t50 -103
t76 -67t96 -24z" />
    <glyph glyph-name="Egrave" unicode="&#xc8;" 
d="M187 853q-21 15 -20 32.5t13 29t30 11.5t31 -19l95 -148l-10 -9zM210 370h100q49 0 75 20t33 80h25v-235h-25q-7 60 -33 80t-75 20h-100v-300h195q57 0 89.5 32t40.5 93h25l-10 -160h-510v20q30 4 48 9t27 14t12 22.5t3 34.5v500q0 21 -3 34.5t-12 22.5t-27 14t-48 9v20
h500l5 -160h-25q-8 61 -38 93t-87 32h-185v-295z" />
    <glyph glyph-name="Eacute" unicode="&#xc9;" 
d="M309 750l-10 9l95 148q13 19 31 19t30 -11.5t13 -29t-20 -32.5zM210 370h100q49 0 75 20t33 80h25v-235h-25q-7 60 -33 80t-75 20h-100v-300h195q57 0 89.5 32t40.5 93h25l-10 -160h-510v20q30 4 48 9t27 14t12 22.5t3 34.5v500q0 21 -3 34.5t-12 22.5t-27 14t-48 9v20
h500l5 -160h-25q-8 61 -38 93t-87 32h-185v-295z" />
    <glyph glyph-name="Ecircumflex" unicode="&#xca;" 
d="M209 750h-20l125 180h20l125 -180h-20l-115 95zM210 370h100q49 0 75 20t33 80h25v-235h-25q-7 60 -33 80t-75 20h-100v-300h195q57 0 89.5 32t40.5 93h25l-10 -160h-510v20q30 4 48 9t27 14t12 22.5t3 34.5v500q0 21 -3 34.5t-12 22.5t-27 14t-48 9v20h500l5 -160h-25
q-8 61 -38 93t-87 32h-185v-295z" />
    <glyph glyph-name="Edieresis" unicode="&#xcb;" 
d="M182 815q0 24 15 39t38 15t38 -15t15 -39q0 -23 -15 -37.5t-38 -14.5t-38 14.5t-15 37.5zM376 815q0 24 15 39t38 15t38 -15t15 -39q0 -23 -15 -37.5t-38 -14.5t-38 14.5t-15 37.5zM210 370h100q49 0 75 20t33 80h25v-235h-25q-7 60 -33 80t-75 20h-100v-300h195
q57 0 89.5 32t40.5 93h25l-10 -160h-510v20q30 4 48 9t27 14t12 22.5t3 34.5v500q0 21 -3 34.5t-12 22.5t-27 14t-48 9v20h500l5 -160h-25q-8 61 -38 93t-87 32h-185v-295z" />
    <glyph glyph-name="Igrave" unicode="&#xcc;" horiz-adv-x="340" 
d="M29 853q-21 15 -20 32.5t13 29t30 11.5t31 -19l95 -148l-10 -9zM130 600q0 21 -3 34.5t-12 22.5t-27 14t-48 9v20h260v-20q-30 -4 -48 -9t-27 -14t-12 -22.5t-3 -34.5v-500q0 -21 3 -34.5t12 -22.5t27 -14t48 -9v-20h-260v20q30 4 48 9t27 14t12 22.5t3 34.5v500z" />
    <glyph glyph-name="Iacute" unicode="&#xcd;" horiz-adv-x="340" 
d="M173 750l-10 9l95 148q13 19 31 19t30 -11.5t13 -29t-20 -32.5zM130 600q0 21 -3 34.5t-12 22.5t-27 14t-48 9v20h260v-20q-30 -4 -48 -9t-27 -14t-12 -22.5t-3 -34.5v-500q0 -21 3 -34.5t12 -22.5t27 -14t48 -9v-20h-260v20q30 4 48 9t27 14t12 22.5t3 34.5v500z" />
    <glyph glyph-name="Icircumflex" unicode="&#xce;" horiz-adv-x="340" 
d="M55 750h-20l125 180h20l125 -180h-20l-115 95zM130 600q0 21 -3 34.5t-12 22.5t-27 14t-48 9v20h260v-20q-30 -4 -48 -9t-27 -14t-12 -22.5t-3 -34.5v-500q0 -21 3 -34.5t12 -22.5t27 -14t48 -9v-20h-260v20q30 4 48 9t27 14t12 22.5t3 34.5v500z" />
    <glyph glyph-name="Idieresis" unicode="&#xcf;" horiz-adv-x="340" 
d="M20 815q0 24 15 39t38 15t38 -15t15 -39q0 -23 -15 -37.5t-38 -14.5t-38 14.5t-15 37.5zM214 815q0 24 15 39t38 15t38 -15t15 -39q0 -23 -15 -37.5t-38 -14.5t-38 14.5t-15 37.5zM132 600q0 21 -3 34.5t-12 22.5t-27 14t-48 9v20h260v-20q-30 -4 -48 -9t-27 -14
t-12 -22.5t-3 -34.5v-500q0 -21 3 -34.5t12 -22.5t27 -14t48 -9v-20h-260v20q30 4 48 9t27 14t12 22.5t3 34.5v500z" />
    <glyph glyph-name="Eth" unicode="&#xd0;" horiz-adv-x="740" 
d="M130 370v230q0 21 -3 34.5t-12 22.5t-27 14t-48 9v20h300q81 0 145.5 -24t110 -69t70 -110t24.5 -147q0 -77 -24.5 -141.5t-70 -111t-110 -72t-145.5 -25.5h-300v20q30 4 48 9t27 14t12 22.5t3 34.5v235h-90v35h90zM340 35q68 0 117.5 27t81 71t46.5 101t15 116
q0 69 -16 127t-49 100t-84 65t-121 23h-120v-295h120v-35h-120v-300h130z" />
    <glyph glyph-name="Ntilde" unicode="&#xd1;" horiz-adv-x="730" 
d="M227 780q8 16 18 35.5t22.5 36t27.5 27.5t32 11q15 0 36.5 -6.5t44 -14t43.5 -13.5t36 -6q26 0 41.5 7t33.5 33l15 -10q-8 -16 -17.5 -33.5t-21 -32.5t-25.5 -24.5t-31 -9.5q-18 0 -39 6t-43.5 13.5t-43.5 14t-39 6.5q-27 0 -41 -10.5t-34 -39.5zM570 600q0 21 -3 34.5
t-12 22.5t-27 14t-48 9v20h220v-20q-30 -4 -48 -9t-27 -14t-12 -22.5t-3 -34.5v-600h-50l-390 620v-520q0 -21 3 -34.5t12 -22.5t27 -14t48 -9v-20h-220v20q30 4 48 9t27 14t12 22.5t3 34.5v500q0 21 -3 34.5t-12 22.5t-27 14t-48 9v20h190l340 -550v450z" />
    <glyph glyph-name="Ograve" unicode="&#xd2;" horiz-adv-x="780" 
d="M260 853q-21 15 -20 32.5t13 29t30 11.5t31 -19l95 -148l-10 -9zM50 350q0 79 26.5 145t73 114t108 74.5t132.5 26.5q70 0 132 -26.5t108.5 -74.5t73 -114t26.5 -145t-26.5 -145t-73 -114t-108.5 -74.5t-132 -26.5q-71 0 -132.5 26.5t-108 74.5t-73 114t-26.5 145z
M140 350q0 -71 19.5 -131t53.5 -103t79.5 -67t97.5 -24t97.5 24t79.5 67t53.5 103t19.5 131t-19.5 131t-53.5 103t-79.5 67t-97.5 24t-97.5 -24t-79.5 -67t-53.5 -103t-19.5 -131z" />
    <glyph glyph-name="Oacute" unicode="&#xd3;" horiz-adv-x="780" 
d="M361 750l-10 9l95 148q13 19 31 19t30 -11.5t13 -29t-20 -32.5zM50 350q0 79 26.5 145t73 114t108 74.5t132.5 26.5q70 0 132 -26.5t108.5 -74.5t73 -114t26.5 -145t-26.5 -145t-73 -114t-108.5 -74.5t-132 -26.5q-71 0 -132.5 26.5t-108 74.5t-73 114t-26.5 145z
M140 350q0 -71 19.5 -131t53.5 -103t79.5 -67t97.5 -24t97.5 24t79.5 67t53.5 103t19.5 131t-19.5 131t-53.5 103t-79.5 67t-97.5 24t-97.5 -24t-79.5 -67t-53.5 -103t-19.5 -131z" />
    <glyph glyph-name="Ocircumflex" unicode="&#xd4;" horiz-adv-x="780" 
d="M275 750h-20l125 180h20l125 -180h-20l-115 95zM50 350q0 79 26.5 145t73 114t108 74.5t132.5 26.5q70 0 132 -26.5t108.5 -74.5t73 -114t26.5 -145t-26.5 -145t-73 -114t-108.5 -74.5t-132 -26.5q-71 0 -132.5 26.5t-108 74.5t-73 114t-26.5 145zM140 350
q0 -71 19.5 -131t53.5 -103t79.5 -67t97.5 -24t97.5 24t79.5 67t53.5 103t19.5 131t-19.5 131t-53.5 103t-79.5 67t-97.5 24t-97.5 -24t-79.5 -67t-53.5 -103t-19.5 -131z" />
    <glyph glyph-name="Otilde" unicode="&#xd5;" horiz-adv-x="780" 
d="M219 780q8 16 18 35.5t22.5 36t27.5 27.5t32 11q15 0 36.5 -6.5t44 -14t43.5 -13.5t36 -6q26 0 41.5 7t33.5 33l15 -10q-8 -16 -17.5 -33.5t-21 -32.5t-25.5 -24.5t-31 -9.5q-18 0 -39 6t-43.5 13.5t-43.5 14t-39 6.5q-27 0 -41 -10.5t-34 -39.5zM50 350q0 79 26.5 145
t73 114t108 74.5t132.5 26.5q70 0 132 -26.5t108.5 -74.5t73 -114t26.5 -145t-26.5 -145t-73 -114t-108.5 -74.5t-132 -26.5q-71 0 -132.5 26.5t-108 74.5t-73 114t-26.5 145zM140 350q0 -71 19.5 -131t53.5 -103t79.5 -67t97.5 -24t97.5 24t79.5 67t53.5 103t19.5 131
t-19.5 131t-53.5 103t-79.5 67t-97.5 24t-97.5 -24t-79.5 -67t-53.5 -103t-19.5 -131z" />
    <glyph glyph-name="Odieresis" unicode="&#xd6;" horiz-adv-x="780" 
d="M248 815q0 24 15 39t38 15t38 -15t15 -39q0 -23 -15 -37.5t-38 -14.5t-38 14.5t-15 37.5zM442 815q0 24 15 39t38 15t38 -15t15 -39q0 -23 -15 -37.5t-38 -14.5t-38 14.5t-15 37.5zM50 350q0 79 26.5 145t73 114t108 74.5t132.5 26.5q70 0 132 -26.5t108.5 -74.5t73 -114
t26.5 -145t-26.5 -145t-73 -114t-108.5 -74.5t-132 -26.5q-71 0 -132.5 26.5t-108 74.5t-73 114t-26.5 145zM140 350q0 -71 19.5 -131t53.5 -103t79.5 -67t97.5 -24t97.5 24t79.5 67t53.5 103t19.5 131t-19.5 131t-53.5 103t-79.5 67t-97.5 24t-97.5 -24t-79.5 -67
t-53.5 -103t-19.5 -131z" />
    <glyph glyph-name="multiply" unicode="&#xd7;" horiz-adv-x="550" 
d="M299 268l151 -151l-25 -24l-151 150l-150 -150l-24 25l150 150l-150 150l24 25l150 -150l151 150l25 -24z" />
    <glyph glyph-name="Oslash" unicode="&#xd8;" horiz-adv-x="780" 
d="M50 350q0 79 26.5 145t73 114t108 74.5t132.5 26.5q68 0 127.5 -24.5t105.5 -69.5l59 62l24 -28l-58 -61q38 -47 60 -107.5t22 -131.5q0 -79 -26.5 -145t-73 -114t-108.5 -74.5t-132 -26.5q-66 0 -124.5 23.5t-104.5 65.5l-61 -64l-26 29l61 63q-40 48 -62.5 109
t-22.5 134zM140 350q0 -55 12 -103t33 -88l393 410q-35 51 -83 78.5t-105 27.5q-52 0 -97.5 -24t-79.5 -67t-53.5 -103t-19.5 -131zM640 350q0 54 -11.5 101t-31.5 85l-392 -411q35 -48 82.5 -74t102.5 -26q52 0 97.5 24t79.5 67t53.5 103t19.5 131z" />
    <glyph glyph-name="Ugrave" unicode="&#xd9;" horiz-adv-x="760" 
d="M267 853q-21 15 -20 32.5t13 29t30 11.5t31 -19l95 -148l-10 -9zM600 600q0 21 -3 34.5t-12 22.5t-27 14t-48 9v20h220v-20q-30 -4 -48 -9t-27 -14t-12 -22.5t-3 -34.5v-330q0 -68 -18.5 -120t-53 -87.5t-83.5 -54t-110 -18.5q-66 0 -114 19.5t-79.5 55.5t-46.5 88
t-15 117v330q0 21 -3 34.5t-12 22.5t-27 14t-48 9v20h260v-20q-30 -4 -48 -9t-27 -14t-12 -22.5t-3 -34.5v-320q0 -121 46.5 -185.5t148.5 -64.5t153.5 64.5t51.5 185.5v320z" />
    <glyph glyph-name="Uacute" unicode="&#xda;" horiz-adv-x="760" 
d="M396 750l-10 9l95 148q13 19 31 19t30 -11.5t13 -29t-20 -32.5zM600 600q0 21 -3 34.5t-12 22.5t-27 14t-48 9v20h220v-20q-30 -4 -48 -9t-27 -14t-12 -22.5t-3 -34.5v-330q0 -68 -18.5 -120t-53 -87.5t-83.5 -54t-110 -18.5q-66 0 -114 19.5t-79.5 55.5t-46.5 88
t-15 117v330q0 21 -3 34.5t-12 22.5t-27 14t-48 9v20h260v-20q-30 -4 -48 -9t-27 -14t-12 -22.5t-3 -34.5v-320q0 -121 46.5 -185.5t148.5 -64.5t153.5 64.5t51.5 185.5v320z" />
    <glyph glyph-name="Ucircumflex" unicode="&#xdb;" horiz-adv-x="760" 
d="M286 750h-20l125 180h20l125 -180h-20l-115 95zM600 600q0 21 -3 34.5t-12 22.5t-27 14t-48 9v20h220v-20q-30 -4 -48 -9t-27 -14t-12 -22.5t-3 -34.5v-330q0 -68 -18.5 -120t-53 -87.5t-83.5 -54t-110 -18.5q-66 0 -114 19.5t-79.5 55.5t-46.5 88t-15 117v330
q0 21 -3 34.5t-12 22.5t-27 14t-48 9v20h260v-20q-30 -4 -48 -9t-27 -14t-12 -22.5t-3 -34.5v-320q0 -121 46.5 -185.5t148.5 -64.5t153.5 64.5t51.5 185.5v320z" />
    <glyph glyph-name="Udieresis" unicode="&#xdc;" horiz-adv-x="760" 
d="M253 815q0 24 15 39t38 15t38 -15t15 -39q0 -23 -15 -37.5t-38 -14.5t-38 14.5t-15 37.5zM447 815q0 24 15 39t38 15t38 -15t15 -39q0 -23 -15 -37.5t-38 -14.5t-38 14.5t-15 37.5zM600 600q0 21 -3 34.5t-12 22.5t-27 14t-48 9v20h220v-20q-30 -4 -48 -9t-27 -14
t-12 -22.5t-3 -34.5v-330q0 -68 -18.5 -120t-53 -87.5t-83.5 -54t-110 -18.5q-66 0 -114 19.5t-79.5 55.5t-46.5 88t-15 117v330q0 21 -3 34.5t-12 22.5t-27 14t-48 9v20h260v-20q-30 -4 -48 -9t-27 -14t-12 -22.5t-3 -34.5v-320q0 -121 46.5 -185.5t148.5 -64.5t153.5 64.5
t51.5 185.5v320z" />
    <glyph glyph-name="Yacute" unicode="&#xdd;" horiz-adv-x="640" 
d="M344 750l-10 9l95 148q13 19 31 19t30 -11.5t13 -29t-20 -32.5zM85 620q-13 24 -29 36.5t-46 23.5v20h240v-20q-30 -4 -44 -11.5t-17.5 -19t2 -26.5t14.5 -33l144 -280h2l134 275q17 37 7.5 62t-62.5 33v20h200v-20q-18 -4 -31.5 -8.5t-24 -11t-18.5 -16.5t-16 -24
l-165 -344v-176q0 -21 3 -34.5t12 -22.5t27 -14t48 -9v-20h-260v20q30 4 48 9t27 14t12 22.5t3 34.5v133z" />
    <glyph glyph-name="Thorn" unicode="&#xde;" horiz-adv-x="610" 
d="M290 195q56 0 93.5 13.5t60 36t32 52.5t9.5 63q0 30 -7.5 59.5t-26.5 53t-50.5 38t-80.5 14.5h-110v-330h80zM210 560h130q56 0 99 -14t72 -39.5t44 -60.5t15 -76q0 -38 -14 -75.5t-47 -67.5t-86.5 -48.5t-132.5 -18.5h-80v-60q0 -21 3 -34.5t12 -22.5t27 -14t48 -9v-20
h-260v20q30 4 48 9t27 14t12 22.5t3 34.5v500q0 21 -3 34.5t-12 22.5t-27 14t-48 9v20h260v-20q-30 -4 -48 -9t-27 -14t-12 -22.5t-3 -34.5v-40z" />
    <glyph glyph-name="germandbls" unicode="&#xdf;" horiz-adv-x="620" 
d="M310 745q-37 0 -60.5 -16t-36.5 -46.5t-18 -76.5t-5 -106v-500h-160v20q26 4 42 9t24.5 14t11 22.5t2.5 34.5v365h-70v30l70 5q0 55 11.5 96.5t29.5 71.5t41.5 49.5t46.5 31.5t44.5 16.5t36.5 4.5q42 0 71 -10.5t47.5 -28.5t26.5 -41.5t8 -49.5q0 -45 -16.5 -73.5
t-37 -50t-37 -42t-16.5 -49.5q0 -15 10 -31t31 -31l98 -71q38 -28 56 -61t19 -66.5t-12.5 -65t-37 -56t-55.5 -39t-68 -14.5q-57 0 -90.5 24.5t-33.5 71.5q0 27 15 41t31.5 15.5t28 -9.5t5.5 -33q-11 -40 -2 -62.5t49 -22.5q44 0 70.5 24.5t31.5 62.5q3 23 -0.5 40t-13 31.5
t-24.5 28t-35 28.5l-83 63q-32 24 -42 48t-5.5 48.5t19.5 50t33 51.5q12 19 21.5 45t14 54.5t2.5 56t-12 49.5t-28.5 35.5t-48.5 13.5z" />
    <glyph glyph-name="agrave" unicode="&#xe0;" horiz-adv-x="500" 
d="M390 130q-1 -30 5.5 -45.5t19.5 -21t32 -4t43 5.5v-15q-45 -30 -71 -45t-49 -15q-19 0 -30.5 7t-18 18t-9 25.5t-2.5 29.5h-2q-42 -38 -77.5 -59t-80.5 -21q-22 0 -42 9t-35 25.5t-24 38t-9 47.5q0 47 35 73t95 37l143 25l2 105q1 60 -29.5 90t-75.5 30q-34 0 -53.5 -12
t-28 -28.5t-6 -33.5t12.5 -26q16 -15 8.5 -29t-24 -23t-35 -10t-24.5 12q-11 24 -0.5 56.5t38.5 62t72 50.5t100 21q60 0 93.5 -35.5t31.5 -99.5zM312 220l-127 -30q-38 -9 -54.5 -30.5t-11.5 -52.5q5 -33 23 -47.5t38 -14.5q17 0 31.5 2.5t29.5 8t31.5 15t37.5 24.5z
M115 653q-21 15 -20 32.5t13 29t30 11.5t31 -19l95 -148l-10 -9z" />
    <glyph glyph-name="aacute" unicode="&#xe1;" horiz-adv-x="500" 
d="M390 130q-1 -30 5.5 -45.5t19.5 -21t32 -4t43 5.5v-15q-45 -30 -71 -45t-49 -15q-19 0 -30.5 7t-18 18t-9 25.5t-2.5 29.5h-2q-42 -38 -77.5 -59t-80.5 -21q-22 0 -42 9t-35 25.5t-24 38t-9 47.5q0 47 35 73t95 37l143 25l2 105q1 60 -29.5 90t-75.5 30q-34 0 -53.5 -12
t-28 -28.5t-6 -33.5t12.5 -26q16 -15 8.5 -29t-24 -23t-35 -10t-24.5 12q-11 24 -0.5 56.5t38.5 62t72 50.5t100 21q60 0 93.5 -35.5t31.5 -99.5zM312 220l-127 -30q-38 -9 -54.5 -30.5t-11.5 -52.5q5 -33 23 -47.5t38 -14.5q17 0 31.5 2.5t29.5 8t31.5 15t37.5 24.5z
M228 550l-10 9l95 148q13 19 31 19t30 -11.5t13 -29t-20 -32.5z" />
    <glyph glyph-name="acircumflex" unicode="&#xe2;" horiz-adv-x="500" 
d="M390 130q-1 -30 5.5 -45.5t19.5 -21t32 -4t43 5.5v-15q-45 -30 -71 -45t-49 -15q-19 0 -30.5 7t-18 18t-9 25.5t-2.5 29.5h-2q-42 -38 -77.5 -59t-80.5 -21q-22 0 -42 9t-35 25.5t-24 38t-9 47.5q0 47 35 73t95 37l143 25l2 105q1 60 -29.5 90t-75.5 30q-34 0 -53.5 -12
t-28 -28.5t-6 -33.5t12.5 -26q16 -15 8.5 -29t-24 -23t-35 -10t-24.5 12q-11 24 -0.5 56.5t38.5 62t72 50.5t100 21q60 0 93.5 -35.5t31.5 -99.5zM312 220l-127 -30q-38 -9 -54.5 -30.5t-11.5 -52.5q5 -33 23 -47.5t38 -14.5q17 0 31.5 2.5t29.5 8t31.5 15t37.5 24.5z
M126 550h-20l125 180h20l125 -180h-20l-115 95z" />
    <glyph glyph-name="atilde" unicode="&#xe3;" horiz-adv-x="500" 
d="M390 130q-1 -30 5.5 -45.5t19.5 -21t32 -4t43 5.5v-15q-45 -30 -71 -45t-49 -15q-19 0 -30.5 7t-18 18t-9 25.5t-2.5 29.5h-2q-42 -38 -77.5 -59t-80.5 -21q-22 0 -42 9t-35 25.5t-24 38t-9 47.5q0 47 35 73t95 37l143 25l2 105q1 60 -29.5 90t-75.5 30q-34 0 -53.5 -12
t-28 -28.5t-6 -33.5t12.5 -26q16 -15 8.5 -29t-24 -23t-35 -10t-24.5 12q-11 24 -0.5 56.5t38.5 62t72 50.5t100 21q60 0 93.5 -35.5t31.5 -99.5zM312 220l-127 -30q-38 -9 -54.5 -30.5t-11.5 -52.5q5 -33 23 -47.5t38 -14.5q17 0 31.5 2.5t29.5 8t31.5 15t37.5 24.5z
M66 580q8 16 18 35.5t22.5 36t27.5 27.5t32 11q15 0 36.5 -6.5t44 -14t43.5 -13.5t36 -6q26 0 41.5 7t33.5 33l15 -10q-8 -16 -17.5 -33.5t-21 -32.5t-25.5 -24.5t-31 -9.5q-18 0 -39 6t-43.5 13.5t-43.5 14t-39 6.5q-27 0 -41 -10.5t-34 -39.5z" />
    <glyph glyph-name="adieresis" unicode="&#xe4;" horiz-adv-x="500" 
d="M390 130q-1 -30 5.5 -45.5t19.5 -21t32 -4t43 5.5v-15q-45 -30 -71 -45t-49 -15q-19 0 -30.5 7t-18 18t-9 25.5t-2.5 29.5h-2q-42 -38 -77.5 -59t-80.5 -21q-22 0 -42 9t-35 25.5t-24 38t-9 47.5q0 47 35 73t95 37l143 25l2 105q1 60 -29.5 90t-75.5 30q-34 0 -53.5 -12
t-28 -28.5t-6 -33.5t12.5 -26q16 -15 8.5 -29t-24 -23t-35 -10t-24.5 12q-11 24 -0.5 56.5t38.5 62t72 50.5t100 21q60 0 93.5 -35.5t31.5 -99.5zM312 220l-127 -30q-38 -9 -54.5 -30.5t-11.5 -52.5q5 -33 23 -47.5t38 -14.5q17 0 31.5 2.5t29.5 8t31.5 15t37.5 24.5z
M94 615q0 24 15 39t38 15t38 -15t15 -39q0 -23 -15 -37.5t-38 -14.5t-38 14.5t-15 37.5zM288 615q0 24 15 39t38 15t38 -15t15 -39q0 -23 -15 -37.5t-38 -14.5t-38 14.5t-15 37.5z" />
    <glyph glyph-name="aring" unicode="&#xe5;" horiz-adv-x="500" 
d="M390 130q-1 -30 5.5 -45.5t19.5 -21t32 -4t43 5.5v-15q-45 -30 -71 -45t-49 -15q-19 0 -30.5 7t-18 18t-9 25.5t-2.5 29.5h-2q-42 -38 -77.5 -59t-80.5 -21q-22 0 -42 9t-35 25.5t-24 38t-9 47.5q0 47 35 73t95 37l143 25l2 105q1 60 -29.5 90t-75.5 30q-34 0 -53.5 -12
t-28 -28.5t-6 -33.5t12.5 -26q16 -15 8.5 -29t-24 -23t-35 -10t-24.5 12q-11 24 -0.5 56.5t38.5 62t72 50.5t100 21q60 0 93.5 -35.5t31.5 -99.5zM312 220l-127 -30q-38 -9 -54.5 -30.5t-11.5 -52.5q5 -33 23 -47.5t38 -14.5q17 0 31.5 2.5t29.5 8t31.5 15t37.5 24.5z
M157 637q0 37 25 62.5t62 25.5t62.5 -25.5t25.5 -62.5t-25.5 -62t-62.5 -25t-62 25t-25 62zM187 637q0 -24 16.5 -40.5t40.5 -16.5q25 0 41.5 16.5t16.5 40.5q0 25 -16.5 41.5t-41.5 16.5q-24 0 -40.5 -16.5t-16.5 -41.5z" />
    <glyph glyph-name="ae" unicode="&#xe6;" horiz-adv-x="741" 
d="M535 -10q-66 0 -111 26.5t-71 70.5q-34 -29 -62 -47.5t-52.5 -29.5t-46 -15.5t-42.5 -4.5q-22 0 -42 9t-35 25.5t-24 38t-9 47.5q0 47 35 73t95 37l143 25l2 105q1 60 -29.5 90t-75.5 30q-34 0 -53.5 -12t-28 -28.5t-6 -33.5t12.5 -26q16 -15 8.5 -29t-24 -23t-35 -10
t-24.5 12q-11 24 -0.5 56.5t38.5 62t72 50.5t100 21q43 0 72 -18.5t43 -52.5q32 35 73.5 53t85.5 18q32 0 63.5 -10.5t54.5 -35t33.5 -66t0.5 -103.5h-301q-2 -54 8.5 -98.5t31.5 -76t52 -48.5t70 -17q45 0 80 10.5t64 29.5v-30q-10 -9 -25.5 -22t-36 -25t-46.5 -20t-58 -8z
M180 45q31 0 71.5 13t90.5 49q-23 50 -26 112l-131 -29q-38 -8 -54.5 -30t-11.5 -53q5 -33 23 -47.5t38 -14.5zM539 480q-58 0 -95 -41t-47 -109h212q17 79 -4 114.5t-66 35.5z" />
    <glyph glyph-name="ccedilla" unicode="&#xe7;" horiz-adv-x="500" 
d="M280 480q-38 0 -68 -15t-51 -41t-32 -63t-11 -80q0 -56 13.5 -98t37.5 -70.5t57.5 -43t73.5 -14.5q49 0 88 10.5t72 29.5v-30q-11 -9 -27.5 -22t-39 -24.5t-51 -19.5t-62.5 -9v-30q0 -14 16 -17.5t35 -9t34.5 -19t15.5 -46.5q0 -24 -15.5 -43t-38.5 -33.5t-51.5 -23.5
t-55.5 -13l-10 25q11 4 29 8.5t35 13t29 21t12 32.5t-10.5 28t-23.5 15t-23 17.5t-8 34.5l2 41q-51 4 -90.5 26.5t-66.5 57t-41 78.5t-14 92q0 64 20.5 113t55 83t78.5 51.5t91 17.5q41 0 73.5 -10.5t55 -28t34.5 -40t12 -46.5q0 -26 -17 -38t-37 -12q-17 0 -30 8t-12 24
q2 27 0 48.5t-11 35.5t-26.5 21.5t-46.5 7.5z" />
    <glyph glyph-name="egrave" unicode="&#xe8;" horiz-adv-x="500" 
d="M280 480q-65 0 -106 -41t-52 -109h247q9 39 5.5 67.5t-16.5 47t-33.5 27t-44.5 8.5zM275 -10q-56 0 -99.5 21t-73.5 56t-46 81t-16 97q0 64 20.5 113t55 83t78.5 51.5t91 17.5q36 0 71 -10.5t60.5 -35t37 -66t0.5 -103.5h-336q-3 -52 9 -96t35.5 -76t58.5 -50t79 -18
q49 0 88 10.5t72 29.5v-30q-11 -9 -28 -22t-40 -25t-52 -20t-65 -8zM160 653q-21 15 -20 32.5t13 29t30 11.5t31 -19l95 -148l-10 -9z" />
    <glyph glyph-name="eacute" unicode="&#xe9;" horiz-adv-x="500" 
d="M280 480q-65 0 -106 -41t-52 -109h247q9 39 5.5 67.5t-16.5 47t-33.5 27t-44.5 8.5zM275 -10q-56 0 -99.5 21t-73.5 56t-46 81t-16 97q0 64 20.5 113t55 83t78.5 51.5t91 17.5q36 0 71 -10.5t60.5 -35t37 -66t0.5 -103.5h-336q-3 -52 9 -96t35.5 -76t58.5 -50t79 -18
q49 0 88 10.5t72 29.5v-30q-11 -9 -28 -22t-40 -25t-52 -20t-65 -8zM263 550l-10 9l95 148q13 19 31 19t30 -11.5t13 -29t-20 -32.5z" />
    <glyph glyph-name="ecircumflex" unicode="&#xea;" horiz-adv-x="500" 
d="M280 480q-65 0 -106 -41t-52 -109h247q9 39 5.5 67.5t-16.5 47t-33.5 27t-44.5 8.5zM275 -10q-56 0 -99.5 21t-73.5 56t-46 81t-16 97q0 64 20.5 113t55 83t78.5 51.5t91 17.5q36 0 71 -10.5t60.5 -35t37 -66t0.5 -103.5h-336q-3 -52 9 -96t35.5 -76t58.5 -50t79 -18
q49 0 88 10.5t72 29.5v-30q-11 -9 -28 -22t-40 -25t-52 -20t-65 -8zM159 550h-20l125 180h20l125 -180h-20l-115 95z" />
    <glyph glyph-name="edieresis" unicode="&#xeb;" horiz-adv-x="500" 
d="M280 480q-65 0 -106 -41t-52 -109h247q9 39 5.5 67.5t-16.5 47t-33.5 27t-44.5 8.5zM275 -10q-56 0 -99.5 21t-73.5 56t-46 81t-16 97q0 64 20.5 113t55 83t78.5 51.5t91 17.5q36 0 71 -10.5t60.5 -35t37 -66t0.5 -103.5h-336q-3 -52 9 -96t35.5 -76t58.5 -50t79 -18
q49 0 88 10.5t72 29.5v-30q-11 -9 -28 -22t-40 -25t-52 -20t-65 -8zM128 615q0 24 15 39t38 15t38 -15t15 -39q0 -23 -15 -37.5t-38 -14.5t-38 14.5t-15 37.5zM322 615q0 24 15 39t38 15t38 -15t15 -39q0 -23 -15 -37.5t-38 -14.5t-38 14.5t-15 37.5z" />
    <glyph glyph-name="igrave" unicode="&#xec;" horiz-adv-x="300" 
d="M200 100q0 -21 3 -34.5t12 -22.5t27 -14t48 -9v-20h-260v20q30 4 48 9t27 14t12 22.5t3 34.5v270q0 19 -2.5 31.5t-11 21t-24.5 13.5t-42 9v20l150 45h10v-410zM21 653q-21 15 -20 32.5t13 29t30 11.5t31 -19l95 -148l-10 -9z" />
    <glyph glyph-name="iacute" unicode="&#xed;" horiz-adv-x="300" 
d="M200 100q0 -21 3 -34.5t12 -22.5t27 -14t48 -9v-20h-260v20q30 4 48 9t27 14t12 22.5t3 34.5v270q0 19 -2.5 31.5t-11 21t-24.5 13.5t-42 9v20l150 45h10v-410zM149 550l-10 9l95 148q13 19 31 19t30 -11.5t13 -29t-20 -32.5z" />
    <glyph glyph-name="icircumflex" unicode="&#xee;" horiz-adv-x="300" 
d="M41 550h-20l125 180h20l125 -180h-20l-115 95zM200 100q0 -21 3 -34.5t12 -22.5t27 -14t48 -9v-20h-260v20q30 4 48 9t27 14t12 22.5t3 34.5v270q0 19 -2.5 31.5t-11 21t-24.5 13.5t-42 9v20l150 45h10v-410z" />
    <glyph glyph-name="idieresis" unicode="&#xef;" horiz-adv-x="300" 
d="M200 100q0 -21 3 -34.5t12 -22.5t27 -14t48 -9v-20h-260v20q30 4 48 9t27 14t12 22.5t3 34.5v270q0 19 -2.5 31.5t-11 21t-24.5 13.5t-42 9v20l150 45h10v-410zM10 615q0 24 15 39t38 15t38 -15t15 -39q0 -23 -15 -37.5t-38 -14.5t-38 14.5t-15 37.5zM204 615q0 24 15 39
t38 15t38 -15t15 -39q0 -23 -15 -37.5t-38 -14.5t-38 14.5t-15 37.5z" />
    <glyph glyph-name="eth" unicode="&#xf0;" horiz-adv-x="562" 
d="M295 665q-38 70 -65 105h50q10 -14 25.5 -33.5t34.5 -45.5l138 80l18 -31l-134 -78q27 -38 55.5 -84.5t51.5 -98.5t38 -107.5t15 -111.5q0 -63 -19 -113t-52 -85t-78 -53.5t-97 -18.5q-53 0 -96.5 19t-74.5 52t-48 79t-16 100t19.5 100t51 79t76.5 52t97 19q50 0 96 -19
q-15 43 -33 84t-37 78l-127 -73l-17 31zM131 240q0 -113 40 -166.5t110 -53.5t110 53.5t40 166.5t-40 166.5t-110 53.5t-110 -53.5t-40 -166.5z" />
    <glyph glyph-name="ntilde" unicode="&#xf1;" horiz-adv-x="620" 
d="M30 20q30 4 48 9t27 14t12 22.5t3 34.5v270q0 19 -2.5 31.5t-11 21t-24.5 13.5t-42 9v20l155 45h8l-3 -105h2q44 44 91 74.5t102 30.5q25 0 47.5 -8t40 -26t27.5 -46.5t10 -69.5v-260q0 -21 3 -34.5t12 -22.5t27 -14t48 -9v-20h-240v20q26 6 40.5 11.5t21 13.5t7.5 21
t1 34v260q0 42 -18.5 66t-56.5 24t-75.5 -16t-89.5 -59v-275q0 -21 3 -34.5t12 -22.5t27 -14t48 -9v-20h-260v20zM148 580q8 16 18 35.5t22.5 36t27.5 27.5t32 11q15 0 36.5 -6.5t44 -14t43.5 -13.5t36 -6q26 0 41.5 7t33.5 33l15 -10q-8 -16 -17.5 -33.5t-21 -32.5
t-25.5 -24.5t-31 -9.5q-18 0 -39 6t-43.5 13.5t-43.5 14t-39 6.5q-27 0 -41 -10.5t-34 -39.5z" />
    <glyph glyph-name="ograve" unicode="&#xf2;" horiz-adv-x="562" 
d="M41 250q1 54 19.5 101.5t51 82.5t76.5 55.5t97 20.5q52 0 96 -20.5t75.5 -55.5t48.5 -82.5t16 -101.5t-20 -101.5t-51.5 -82.5t-77 -55.5t-96.5 -20.5q-53 0 -96.5 20.5t-74.5 55.5t-48 82.5t-16 101.5zM131 250q0 -113 40 -171.5t110 -58.5t110 58.5t40 171.5t-40 171.5
t-110 58.5t-110 -58.5t-40 -171.5zM169 653q-21 15 -20 32.5t13 29t30 11.5t31 -19l95 -148l-10 -9z" />
    <glyph glyph-name="oacute" unicode="&#xf3;" horiz-adv-x="562" 
d="M41 250q1 54 19.5 101.5t51 82.5t76.5 55.5t97 20.5q52 0 96 -20.5t75.5 -55.5t48.5 -82.5t16 -101.5t-20 -101.5t-51.5 -82.5t-77 -55.5t-96.5 -20.5q-53 0 -96.5 20.5t-74.5 55.5t-48 82.5t-16 101.5zM131 250q0 -113 40 -171.5t110 -58.5t110 58.5t40 171.5t-40 171.5
t-110 58.5t-110 -58.5t-40 -171.5zM274 550l-10 9l95 148q13 19 31 19t30 -11.5t13 -29t-20 -32.5z" />
    <glyph glyph-name="ocircumflex" unicode="&#xf4;" horiz-adv-x="562" 
d="M41 250q1 54 19.5 101.5t51 82.5t76.5 55.5t97 20.5q52 0 96 -20.5t75.5 -55.5t48.5 -82.5t16 -101.5t-20 -101.5t-51.5 -82.5t-77 -55.5t-96.5 -20.5q-53 0 -96.5 20.5t-74.5 55.5t-48 82.5t-16 101.5zM131 250q0 -113 40 -171.5t110 -58.5t110 58.5t40 171.5t-40 171.5
t-110 58.5t-110 -58.5t-40 -171.5zM175 550h-20l125 180h20l125 -180h-20l-115 95z" />
    <glyph glyph-name="otilde" unicode="&#xf5;" horiz-adv-x="562" 
d="M41 250q1 54 19.5 101.5t51 82.5t76.5 55.5t97 20.5q52 0 96 -20.5t75.5 -55.5t48.5 -82.5t16 -101.5t-20 -101.5t-51.5 -82.5t-77 -55.5t-96.5 -20.5q-53 0 -96.5 20.5t-74.5 55.5t-48 82.5t-16 101.5zM131 250q0 -113 40 -171.5t110 -58.5t110 58.5t40 171.5t-40 171.5
t-110 58.5t-110 -58.5t-40 -171.5zM113 580q8 16 18 35.5t22.5 36t27.5 27.5t32 11q15 0 36.5 -6.5t44 -14t43.5 -13.5t36 -6q26 0 41.5 7t33.5 33l15 -10q-8 -16 -17.5 -33.5t-21 -32.5t-25.5 -24.5t-31 -9.5q-18 0 -39 6t-43.5 13.5t-43.5 14t-39 6.5q-27 0 -41 -10.5
t-34 -39.5z" />
    <glyph glyph-name="odieresis" unicode="&#xf6;" horiz-adv-x="562" 
d="M41 250q1 54 19.5 101.5t51 82.5t76.5 55.5t97 20.5q52 0 96 -20.5t75.5 -55.5t48.5 -82.5t16 -101.5t-20 -101.5t-51.5 -82.5t-77 -55.5t-96.5 -20.5q-53 0 -96.5 20.5t-74.5 55.5t-48 82.5t-16 101.5zM131 250q0 -113 40 -171.5t110 -58.5t110 58.5t40 171.5t-40 171.5
t-110 58.5t-110 -58.5t-40 -171.5zM137 615q0 24 15 39t38 15t38 -15t15 -39q0 -23 -15 -37.5t-38 -14.5t-38 14.5t-15 37.5zM331 615q0 24 15 39t38 15t38 -15t15 -39q0 -23 -15 -37.5t-38 -14.5t-38 14.5t-15 37.5z" />
    <glyph glyph-name="divide" unicode="&#xf7;" horiz-adv-x="560" 
d="M237 121q0 21 14 35t34 14t34 -14t14 -35q0 -20 -14 -33.5t-34 -13.5t-34 13.5t-14 33.5zM237 412q0 21 14 35t34 14t34 -14t14 -35q0 -20 -14 -33.5t-34 -13.5t-34 13.5t-14 33.5zM460 285v-35h-360v35h360z" />
    <glyph glyph-name="oslash" unicode="&#xf8;" horiz-adv-x="562" 
d="M521 485l-56 -61q27 -35 42 -79t14 -95q-1 -54 -20 -101.5t-51.5 -82.5t-77 -55.5t-96.5 -20.5q-47 0 -86 15.5t-69 43.5l-54 -59l-27 25l56 61q-27 35 -42 79t-13 95q1 54 19.5 101.5t51 82.5t76.5 55.5t97 20.5q46 0 85.5 -16t69.5 -44l56 60zM431 250q0 35 -4 64.5
t-12 54.5l-253 -275q39 -74 119 -74q70 0 110 58.5t40 171.5zM131 250q0 -72 16 -119l253 275q-40 74 -119 74q-70 0 -110 -58.5t-40 -171.5z" />
    <glyph glyph-name="ugrave" unicode="&#xf9;" 
d="M410 95h-2q-22 -23 -43 -42t-43 -33t-46 -22t-51 -8q-25 0 -47.5 8t-40 26t-27.5 46.5t-10 69.5v265q0 19 -2.5 31.5t-11 21t-24.5 13.5t-42 9v20h160v-360q0 -42 18.5 -66t56.5 -24q19 0 36 3.5t34.5 11.5t38 22.5t46.5 37.5v280q0 19 -3 31.5t-12 21t-27 13.5t-48 9v20
h170v-370q0 -26 6.5 -40.5t19 -20.5t31.5 -6t43 2v-25l-170 -50h-10v105zM151 653q-21 15 -20 32.5t13 29t30 11.5t31 -19l95 -148l-10 -9z" />
    <glyph glyph-name="uacute" unicode="&#xfa;" 
d="M410 95h-2q-22 -23 -43 -42t-43 -33t-46 -22t-51 -8q-25 0 -47.5 8t-40 26t-27.5 46.5t-10 69.5v265q0 19 -2.5 31.5t-11 21t-24.5 13.5t-42 9v20h160v-360q0 -42 18.5 -66t56.5 -24q19 0 36 3.5t34.5 11.5t38 22.5t46.5 37.5v280q0 19 -3 31.5t-12 21t-27 13.5t-48 9v20
h170v-370q0 -26 6.5 -40.5t19 -20.5t31.5 -6t43 2v-25l-170 -50h-10v105zM281 550l-10 9l95 148q13 19 31 19t30 -11.5t13 -29t-20 -32.5z" />
    <glyph glyph-name="ucircumflex" unicode="&#xfb;" 
d="M410 95h-2q-22 -23 -43 -42t-43 -33t-46 -22t-51 -8q-25 0 -47.5 8t-40 26t-27.5 46.5t-10 69.5v265q0 19 -2.5 31.5t-11 21t-24.5 13.5t-42 9v20h160v-360q0 -42 18.5 -66t56.5 -24q19 0 36 3.5t34.5 11.5t38 22.5t46.5 37.5v280q0 19 -3 31.5t-12 21t-27 13.5t-48 9v20
h170v-370q0 -26 6.5 -40.5t19 -20.5t31.5 -6t43 2v-25l-170 -50h-10v105zM177 550h-20l125 180h20l125 -180h-20l-115 95z" />
    <glyph glyph-name="udieresis" unicode="&#xfc;" 
d="M410 95h-2q-22 -23 -43 -42t-43 -33t-46 -22t-51 -8q-25 0 -47.5 8t-40 26t-27.5 46.5t-10 69.5v265q0 19 -2.5 31.5t-11 21t-24.5 13.5t-42 9v20h160v-360q0 -42 18.5 -66t56.5 -24q19 0 36 3.5t34.5 11.5t38 22.5t46.5 37.5v280q0 19 -3 31.5t-12 21t-27 13.5t-48 9v20
h170v-370q0 -26 6.5 -40.5t19 -20.5t31.5 -6t43 2v-25l-170 -50h-10v105zM139 615q0 24 15 39t38 15t38 -15t15 -39q0 -23 -15 -37.5t-38 -14.5t-38 14.5t-15 37.5zM333 615q0 24 15 39t38 15t38 -15t15 -39q0 -23 -15 -37.5t-38 -14.5t-38 14.5t-15 37.5z" />
    <glyph glyph-name="yacute" unicode="&#xfd;" horiz-adv-x="570" 
d="M85 420q-6 12 -11 21t-13 15.5t-20 12t-31 11.5v20h240v-20q-30 -4 -46 -11.5t-22 -18.5t-3 -26t11 -34l124 -300h2l114 300q14 38 -1 60t-69 30v20h200v-20q-18 -4 -30.5 -8t-21.5 -10.5t-15.5 -16.5t-12.5 -25l-170 -430q-29 -73 -63.5 -121.5t-69 -78.5t-66 -43.5
t-54.5 -16.5q-29 -4 -42 10t-14.5 31.5t8.5 30.5t28 8q52 -15 91.5 -1.5t68 43t47.5 67.5t31 71zM319 550l-10 9l95 148q13 19 31 19t30 -11.5t13 -29t-20 -32.5z" />
    <glyph glyph-name="thorn" unicode="&#xfe;" 
d="M192 440q29 30 71 50t87 20q49 0 88 -19.5t66 -54t41.5 -82.5t14.5 -104q0 -60 -21.5 -108t-57 -82t-81.5 -52t-95 -18q-28 0 -60 7.5t-55 22.5v-180q0 -21 3 -34.5t12 -22.5t27 -14t48 -9v-20h-250v20q26 4 42 9t24.5 14t11 22.5t2.5 34.5v790q0 19 -2.5 31.5t-11 21
t-24.5 13.5t-42 9v20l152 45h8v-330h2zM315 455q-38 0 -70 -13.5t-55 -33.5v-243q0 -43 11.5 -71t29.5 -44.5t39 -23t40 -6.5q41 0 73 17t53 47.5t31 72.5t8 93q-2 49 -15.5 87t-35 64t-50 40t-59.5 14z" />
    <glyph glyph-name="ydieresis" unicode="&#xff;" horiz-adv-x="570" 
d="M85 420q-6 12 -11 21t-13 15.5t-20 12t-31 11.5v20h240v-20q-30 -4 -46 -11.5t-22 -18.5t-3 -26t11 -34l124 -300h2l114 300q14 38 -1 60t-69 30v20h200v-20q-18 -4 -30.5 -8t-21.5 -10.5t-15.5 -16.5t-12.5 -25l-170 -430q-29 -73 -63.5 -121.5t-69 -78.5t-66 -43.5
t-54.5 -16.5q-29 -4 -42 10t-14.5 31.5t8.5 30.5t28 8q52 -15 91.5 -1.5t68 43t47.5 67.5t31 71zM156 615q0 24 15 39t38 15t38 -15t15 -39q0 -23 -15 -37.5t-38 -14.5t-38 14.5t-15 37.5zM350 615q0 24 15 39t38 15t38 -15t15 -39q0 -23 -15 -37.5t-38 -14.5t-38 14.5
t-15 37.5z" />
    <glyph glyph-name="OE" unicode="&#x152;" horiz-adv-x="970" 
d="M580 370h100q49 0 75 20t33 80h25v-235h-25q-7 60 -33 80t-75 20h-100v-300h195q57 0 89.5 32t40.5 93h25l-10 -160h-430q-8 -2 -20.5 -4t-26.5 -3.5t-28.5 -2t-24.5 -0.5q-71 0 -132.5 26.5t-108 74.5t-73 114t-26.5 145t26.5 145t73 114t108 74.5t132.5 26.5
q10 0 24.5 -0.5t28.5 -2t26.5 -3.5t20.5 -4h420l5 -160h-25q-8 61 -38 93t-87 32h-185v-295zM140 350q0 -71 19.5 -131t53.5 -103t79.5 -67t97.5 -24q61 0 85.5 33.5t24.5 91.5v400q0 58 -24.5 91.5t-85.5 33.5q-52 0 -97.5 -24t-79.5 -67t-53.5 -103t-19.5 -131z" />
    <glyph glyph-name="oe" unicode="&#x153;" horiz-adv-x="864" 
d="M639 -10q-66 0 -112 27.5t-73 73.5q-31 -47 -79 -74t-109 -27q-53 0 -95 20.5t-71 55.5t-44.5 82.5t-14.5 101.5t18 101.5t47.5 82.5t73 55.5t95.5 20.5q61 0 108 -27.5t76 -73.5q32 49 82.5 75t107.5 26q36 0 71 -10.5t60.5 -35t37 -66t0.5 -103.5h-316q-3 -52 5.5 -96
t29 -76t52 -50t75.5 -18q49 0 88 10.5t72 29.5v-30q-11 -9 -28 -22t-40 -25t-52 -20t-65 -8zM131 250q0 -113 35 -171.5t105 -58.5t105 58.5t35 171.5t-35 171.5t-105 58.5t-105 -58.5t-35 -171.5zM644 480q-32 0 -55.5 -11t-40 -30.5t-26.5 -47t-16 -61.5h227
q9 39 5.5 67.5t-16.5 47t-33.5 27t-44.5 8.5z" />
    <glyph glyph-name="Scaron" unicode="&#x160;" horiz-adv-x="535" 
d="M277 835l115 95h20l-125 -180h-20l-125 180h20zM440 500q-12 90 -57.5 132.5t-109.5 42.5q-128 0 -128 -115q0 -32 12 -56t32.5 -42.5t46 -32t52.5 -24.5q37 -15 72.5 -35t63.5 -46.5t44.5 -59.5t16.5 -74q0 -45 -16 -82t-45 -63t-70 -40.5t-91 -14.5q-54 0 -107.5 13.5
t-95.5 36.5l-10 175h25q6 -62 25.5 -99.5t46 -57.5t57.5 -26.5t59 -6.5q69 0 103 39.5t34 101.5q0 34 -15 59.5t-38 45t-52 33.5t-57 26q-38 16 -70.5 35.5t-56.5 43.5t-37.5 54.5t-13.5 68.5q0 37 14 69.5t41 56.5t66.5 38t90.5 14q46 0 93.5 -11t89.5 -34l10 -165h-25z
" />
    <glyph glyph-name="scaron" unicode="&#x161;" horiz-adv-x="430" 
d="M340 350q-4 30 -16 54t-30 41t-39.5 26t-44.5 9q-45 0 -70 -21t-25 -59q0 -24 10 -41t26.5 -28.5t37 -20t41.5 -15.5q28 -10 55.5 -23t49.5 -31t36 -42.5t14 -58.5q0 -36 -15 -63.5t-39.5 -47t-57 -29.5t-68.5 -10q-38 0 -79 10t-71 25l-10 135h25q4 -43 18.5 -70.5
t34 -43t41.5 -21t41 -5.5q46 0 73 26.5t27 68.5q0 24 -10.5 41t-28 29.5t-39 21.5t-42.5 18q-29 12 -54.5 24.5t-44.5 30t-30 40.5t-11 55q0 30 12 55t34.5 42.5t53.5 27.5t70 10q35 0 72.5 -8.5t67.5 -22.5l10 -129h-25zM203 635l115 95h20l-125 -180h-20l-125 180h20z" />
    <glyph glyph-name="Ydieresis" unicode="&#x178;" horiz-adv-x="640" 
d="M195 815q0 24 15 39t38 15t38 -15t15 -39q0 -23 -15 -37.5t-38 -14.5t-38 14.5t-15 37.5zM389 815q0 24 15 39t38 15t38 -15t15 -39q0 -23 -15 -37.5t-38 -14.5t-38 14.5t-15 37.5zM85 620q-13 24 -29 36.5t-46 23.5v20h240v-20q-30 -4 -44 -11.5t-17.5 -19t2 -26.5
t14.5 -33l144 -280h2l134 275q17 37 7.5 62t-62.5 33v20h200v-20q-18 -4 -31.5 -8.5t-24 -11t-18.5 -16.5t-16 -24l-165 -344v-176q0 -21 3 -34.5t12 -22.5t27 -14t48 -9v-20h-260v20q30 4 48 9t27 14t12 22.5t3 34.5v133z" />
    <glyph glyph-name="Zcaron" unicode="&#x17d;" 
d="M312 835l115 95h20l-125 -180h-20l-125 180h20zM155 35h250q57 0 89.5 32t40.5 93h25l-10 -160h-510v20l400 645h-228q-57 0 -87 -32t-38 -93h-25l5 160h483v-20z" />
    <glyph glyph-name="zcaron" unicode="&#x17e;" horiz-adv-x="480" 
d="M340 30q42 0 62 29.5t28 90.5h20l-10 -150h-410v30l310 440h-185q-42 0 -59.5 -29.5t-25.5 -90.5h-20l5 150h380v-30l-310 -440h215zM256 635l115 95h20l-125 -180h-20l-125 180h20z" />
    <glyph glyph-name="florin" unicode="&#x192;" horiz-adv-x="310" 
d="M150 0q-7 -40 -24.5 -75.5t-41 -65.5t-50.5 -54t-53 -40.5t-49 -25.5t-38 -9q-29 0 -37.5 14.5t-4 31t19 28t31.5 6.5q48 -15 76 -9.5t44.5 30t26 67t20.5 102.5l84 465h-65v30l70 5q7 40 24.5 75.5t41 65.5t51 54t53.5 40.5t49 25.5t38 9q29 0 37.5 -14.5t4 -31t-19 -28
t-31.5 -6.5q-49 15 -77.5 9.5t-45 -30t-26 -67t-19.5 -102.5h130v-35h-136z" />
    <glyph glyph-name="circumflex" unicode="&#x2c6;" horiz-adv-x="470" 
d="M120 550h-20l125 180h20l125 -180h-20l-115 95z" />
    <glyph glyph-name="tilde" unicode="&#x2dc;" horiz-adv-x="550" 
d="M100 580q8 16 18 35.5t22.5 36t27.5 27.5t32 11q15 0 36.5 -6.5t44 -14t43.5 -13.5t36 -6q26 0 41.5 7t33.5 33l15 -10q-8 -16 -17.5 -33.5t-21 -32.5t-25.5 -24.5t-31 -9.5q-18 0 -39 6t-43.5 13.5t-43.5 14t-39 6.5q-27 0 -41 -10.5t-34 -39.5z" />
    <glyph glyph-name="uni03BC" unicode="&#x3bc;" 
d="M410 95h-2q-22 -23 -43 -42t-43 -33t-46 -22t-51 -8q-24 0 -48 8q-6 -57 -24 -106t-42 -85t-50.5 -56.5t-50.5 -20.5q-29 0 -41.5 14.5t-12 31t11.5 28t29 6.5q52 -15 75 -2t29 46.5t2.5 83t-3.5 107.5v360q0 19 -2.5 31.5t-11 21t-24.5 13.5t-42 9v20h160v-360
q0 -42 18.5 -66t56.5 -24q19 0 36 3.5t34.5 11.5t38 22.5t46.5 37.5v280q0 19 -3 31.5t-12 21t-27 13.5t-48 9v20h170v-370q0 -26 6.5 -40.5t19 -20.5t31.5 -6t43 2v-25l-170 -50h-10v105z" />
    <glyph glyph-name="endash" unicode="&#x2013;" horiz-adv-x="610" 
d="M510 285v-35h-410v35h410z" />
    <glyph glyph-name="emdash" unicode="&#x2014;" horiz-adv-x="900" 
d="M800 285v-35h-700v35h700z" />
    <glyph glyph-name="quoteleft" unicode="&#x2018;" horiz-adv-x="340" 
d="M180 500q-25 0 -40.5 10t-24.5 25t-12 32.5t-3 32.5q0 34 12 64t30 53t40 39t43 24l10 -20q-32 -15 -51.5 -39t-26.5 -46.5t-1.5 -38.5t24.5 -16q25 0 42.5 -17.5t17.5 -42.5t-17.5 -42.5t-42.5 -17.5z" />
    <glyph glyph-name="quoteright" unicode="&#x2019;" horiz-adv-x="340" 
d="M160 770q25 0 40.5 -10t24.5 -25t12 -32.5t3 -32.5q0 -35 -12 -64.5t-30 -52.5t-40 -39.5t-43 -23.5l-10 20q32 15 51.5 38.5t26.5 46t1.5 39t-24.5 16.5q-25 0 -42.5 17.5t-17.5 42.5t17.5 42.5t42.5 17.5z" />
    <glyph glyph-name="quotesinglbase" unicode="&#x201a;" horiz-adv-x="340" 
d="M160 120q25 0 40.5 -10t24.5 -25t12 -32.5t3 -32.5q0 -35 -12 -64.5t-30 -52.5t-40 -39.5t-43 -23.5l-10 20q32 15 51.5 38.5t26.5 46t1.5 39t-24.5 16.5q-25 0 -42.5 17.5t-17.5 42.5t17.5 42.5t42.5 17.5z" />
    <glyph glyph-name="quotedblleft" unicode="&#x201c;" horiz-adv-x="560" 
d="M400 500q-25 0 -40.5 10t-24.5 25t-12 32.5t-3 32.5q0 34 12 64t30 53t40 39t43 24l10 -20q-32 -15 -51.5 -39t-26.5 -46.5t-1.5 -38.5t24.5 -16q25 0 42.5 -17.5t17.5 -42.5t-17.5 -42.5t-42.5 -17.5zM180 500q-25 0 -40.5 10t-24.5 25t-12 32.5t-3 32.5q0 34 12 64
t30 53t40 39t43 24l10 -20q-32 -15 -51.5 -39t-26.5 -46.5t-1.5 -38.5t24.5 -16q25 0 42.5 -17.5t17.5 -42.5t-17.5 -42.5t-42.5 -17.5z" />
    <glyph glyph-name="quotedblright" unicode="&#x201d;" horiz-adv-x="560" 
d="M160 770q25 0 40.5 -10t24.5 -25t12 -32.5t3 -32.5q0 -35 -12 -64.5t-30 -52.5t-40 -39.5t-43 -23.5l-10 20q32 15 51.5 38.5t26.5 46t1.5 39t-24.5 16.5q-25 0 -42.5 17.5t-17.5 42.5t17.5 42.5t42.5 17.5zM380 770q25 0 40.5 -10t24.5 -25t12 -32.5t3 -32.5
q0 -35 -12 -64.5t-30 -52.5t-40 -39.5t-43 -23.5l-10 20q32 15 51.5 38.5t26.5 46t1.5 39t-24.5 16.5q-25 0 -42.5 17.5t-17.5 42.5t17.5 42.5t42.5 17.5z" />
    <glyph glyph-name="quotedblbase" unicode="&#x201e;" horiz-adv-x="560" 
d="M160 120q25 0 40.5 -10t24.5 -25t12 -32.5t3 -32.5q0 -35 -12 -64.5t-30 -52.5t-40 -39.5t-43 -23.5l-10 20q32 15 51.5 38.5t26.5 46t1.5 39t-24.5 16.5q-25 0 -42.5 17.5t-17.5 42.5t17.5 42.5t42.5 17.5zM380 120q25 0 40.5 -10t24.5 -25t12 -32.5t3 -32.5
q0 -35 -12 -64.5t-30 -52.5t-40 -39.5t-43 -23.5l-10 20q32 15 51.5 38.5t26.5 46t1.5 39t-24.5 16.5q-25 0 -42.5 17.5t-17.5 42.5t17.5 42.5t42.5 17.5z" />
    <glyph glyph-name="dagger" unicode="&#x2020;" horiz-adv-x="645" 
d="M308 115q0 48 -4 80.5t-8.5 53.5t-8.5 33.5t-4 22.5q0 6 2 13.5t5 24t7.5 45.5t10.5 77q-51 -6 -81.5 -10.5t-48 -7.5t-25 -5t-13.5 -2q-17 0 -28.5 11.5t-11.5 28.5t11.5 28.5t28.5 11.5q6 0 13.5 -2t25 -5.5t48 -8t81.5 -9.5q-6 54 -10.5 85.5t-7.5 49.5t-5 26t-2 14
q0 17 11.5 28.5t28.5 11.5t28.5 -11.5t11.5 -28.5q0 -6 -2 -14t-5.5 -26t-8 -49.5t-9.5 -85.5q51 5 81 9.5t47 8t25 5.5t14 2q17 0 28.5 -11.5t11.5 -28.5t-11.5 -28.5t-28.5 -11.5q-6 0 -14 2t-25 5t-47 7.5t-81 10.5q5 -48 9.5 -77t8 -45.5t5.5 -24t2 -13.5
q0 -10 -4 -22.5t-8.5 -33.5t-8.5 -53.5t-4 -80.5v-375h-30v375z" />
    <glyph glyph-name="daggerdbl" unicode="&#x2021;" horiz-adv-x="645" 
d="M363 230q0 -21 -3.5 -45.5t-7.5 -55t-8.5 -68.5t-5.5 -86q51 6 81 10.5t47 7.5t25 5t14 2q17 0 28.5 -11.5t11.5 -28.5t-11.5 -28.5t-28.5 -11.5q-6 0 -14 2t-25 5.5t-47 8t-81 9.5q5 -54 9.5 -85.5t8 -49.5t5.5 -26t2 -14q0 -17 -11.5 -28.5t-28.5 -11.5t-28.5 11.5
t-11.5 28.5q0 6 2 14t5 26t7.5 49.5t10.5 85.5q-51 -5 -81.5 -9.5t-48 -8t-25 -5.5t-13.5 -2q-17 0 -28.5 11.5t-11.5 28.5t11.5 28.5t28.5 11.5q6 0 13.5 -2t25 -5t48 -7.5t81.5 -10.5q-2 48 -6 86t-8.5 68.5t-7.5 55t-3 45.5t3 42t7.5 48t8.5 62t6 83q-51 -6 -81.5 -10.5
t-48 -7.5t-25 -5t-13.5 -2q-17 0 -28.5 11.5t-11.5 28.5t11.5 28.5t28.5 11.5q6 0 13.5 -2t25 -5.5t48 -8t81.5 -9.5q-6 54 -10.5 85.5t-7.5 49.5t-5 26t-2 14q0 17 11.5 28.5t28.5 11.5t28.5 -11.5t11.5 -28.5q0 -6 -2 -14t-5.5 -26t-8 -49.5t-9.5 -85.5q51 5 81 9.5t47 8
t25 5.5t14 2q17 0 28.5 -11.5t11.5 -28.5t-11.5 -28.5t-28.5 -11.5q-6 0 -14 2t-25 5t-47 7.5t-81 10.5q1 -48 5.5 -83t8.5 -62t7.5 -48t3.5 -42z" />
    <glyph glyph-name="bullet" unicode="&#x2022;" horiz-adv-x="397" 
d="M100 232q0 42 28 70.5t70 28.5t70.5 -28.5t28.5 -70.5t-28.5 -70t-70.5 -28t-70 28t-28 70z" />
    <glyph glyph-name="ellipsis" unicode="&#x2026;" horiz-adv-x="800" 
d="M100 50q0 25 17.5 42.5t42.5 17.5t42.5 -17.5t17.5 -42.5t-17.5 -42.5t-42.5 -17.5t-42.5 17.5t-17.5 42.5zM340 50q0 25 17.5 42.5t42.5 17.5t42.5 -17.5t17.5 -42.5t-17.5 -42.5t-42.5 -17.5t-42.5 17.5t-17.5 42.5zM580 50q0 25 17.5 42.5t42.5 17.5t42.5 -17.5
t17.5 -42.5t-17.5 -42.5t-42.5 -17.5t-42.5 17.5t-17.5 42.5z" />
    <glyph glyph-name="perthousand" unicode="&#x2030;" horiz-adv-x="1390" 
d="M684 770l-340 -830h-40l341 830h39zM591 145q0 32 11.5 60.5t31 49.5t46.5 33t59 12q31 0 57 -12t44.5 -33t29 -49.5t9.5 -60.5t-12 -60.5t-30.5 -49.5t-46.5 -33t-60 -12q-30 0 -56 12t-44.5 33t-29 49.5t-9.5 60.5zM645 145q0 -68 24 -103.5t66 -35.5t66 35.5t24 103.5
t-24 103.5t-66 35.5t-66 -35.5t-24 -103.5zM101 555q0 32 11.5 60.5t31 49.5t46.5 33t59 12q31 0 57 -12t44.5 -33t29 -49.5t9.5 -60.5t-12 -60.5t-30.5 -49.5t-46.5 -33t-60 -12q-30 0 -56 12t-44.5 33t-29 49.5t-9.5 60.5zM155 555q0 -68 24 -103.5t66 -35.5t66 35.5
t24 103.5t-24 103.5t-66 35.5t-66 -35.5t-24 -103.5zM1001 145q0 32 11.5 60.5t31 49.5t46.5 33t59 12q31 0 57 -12t44.5 -33t29 -49.5t9.5 -60.5t-12 -60.5t-30.5 -49.5t-46.5 -33t-60 -12q-30 0 -56 12t-44.5 33t-29 49.5t-9.5 60.5zM1055 145q0 -68 24 -103.5t66 -35.5
t66 35.5t24 103.5t-24 103.5t-66 35.5t-66 -35.5t-24 -103.5z" />
    <glyph glyph-name="guilsinglleft" unicode="&#x2039;" horiz-adv-x="480" 
d="M206 269l174 -156v-40l-280 185v20l280 185v-40z" />
    <glyph glyph-name="guilsinglright" unicode="&#x203a;" horiz-adv-x="480" 
d="M100 423v40l280 -185v-20l-280 -185v40l174 156z" />
    <glyph glyph-name="Euro" unicode="&#x20ac;" horiz-adv-x="750" 
d="M136 425q11 64 40 116.5t71.5 90t96.5 58t116 20.5q37 0 70.5 -6t62 -15t50.5 -19.5t37 -19.5l10 -140h-25q-8 30 -24 59.5t-41 53t-60 38t-80 14.5t-84 -18t-70 -51t-51.5 -79t-29.5 -102h195v-35h-199q-1 -10 -1 -20v-20v-23t2 -22h198v-35h-194q9 -55 30 -100
t51.5 -77.5t69 -50t83.5 -17.5t80 14.5t60 38t41 53t24 59.5h25l-10 -140q-15 -9 -37 -19.5t-50.5 -19.5t-62 -15t-70.5 -6q-61 0 -115 20.5t-96 57t-71 88t-41 114.5h-77v35h72q-1 11 -1.5 22t-0.5 23q0 10 0.5 20t1.5 20h-72v35h76z" />
    <glyph glyph-name="trademark" unicode="&#x2122;" horiz-adv-x="954" 
d="M379 700l3 -84h-15q-4 37 -19.5 50t-47.5 13h-36v-239q0 -12 1.5 -20.5t7.5 -13.5t16.5 -8.5t28.5 -5.5v-11h-153v11q17 2 27.5 5.5t16 8.5t7.5 13.5t2 20.5v239h-37q-32 0 -47.5 -13t-20.5 -50h-13l1 84h278zM752 700h102v-12q-17 -3 -27.5 -6t-16 -8t-7 -13t-1.5 -20
v-201q0 -12 1.5 -20.5t7 -13.5t16 -8.5t27.5 -5.5v-11h-153v11q18 2 28.5 5.5t16.5 8.5t7.5 13.5t1.5 20.5v207l-110 -269h-23l-115 274v-212q0 -25 9 -34t44 -14v-11h-131v11q18 2 28.5 5.5t16 8.5t7 13.5t1.5 20.5v201q0 12 -1.5 20t-7 13t-16 8t-28.5 6v12h110l110 -257z
" />
    <glyph glyph-name="glyph216" horiz-adv-x="306" 
d="M100 263q0 24 15 39t38 15t38 -15t15 -39q0 -23 -15 -37.5t-38 -14.5t-38 14.5t-15 37.5z" />
    <glyph glyph-name="glyph221" horiz-adv-x="0" 
 />
    <glyph glyph-name="glyph226" horiz-adv-x="0" 
 />
    </font>
</defs>
</svg>
